Tags
Language
Tags

Udaya - Sonya Genel Classes

Posted By: ParRus
Udaya - Sonya Genel Classes

Udaya - Sonya Genel Classes
WEBRip | English | MP4 | 1280 x 720 | AVC ~1000 kbps | 24 fps
AAC | 160 Kbps | 48.0 KHz | 2 channels | 05:21:53 | 2.62 GB
Genre: eLearning Video / Yoga, Health

Sonya Genel, ERYT500, joyfully embraces the power of yoga not only to heal and transform the body but also to heighten human consciousness and to create a radiant life. In her classes, Sonya weaves precise anatomical alignment with flowing movement.
Always approaching her students with authenticity and humor, Sonya’s intention is to hold space for a direct embodied connection with Spirit. When she is not teaching yoga, Sonya can often be found drawing or painting. As an artist, she notices the profound effects yoga has on her creativity, and she has dedicated herself to enthusiastically guiding others toward enhancing their own unique life path through yoga.

When Sonya first discovered yoga in the 1990’s in Boston, she began with Ashtanga yoga and power vinyasa, but as her practice evolved she gravitated more towards alignment-based styles such as Anusara and Iyengar. She attended her first teacher training at the Kripalu Center for Yoga and Health. Over the years she has completed hundreds more hours of training in alignment based yoga, prenatal yoga, anatomy, therapeutics, mysticism, tantra, and meditation. Sonya is grateful to have had the opportunity to study deeply with Sianna Sherman and many other incredible teachers.

Includes:

Detox Flow - 60 min - Level 3
Fearless Flight School - 60 min - Level 3
Get Grounded - 40 min - Level 1
Happy Shoulders, Radiant Heart - 40 min - Level 2
Rise and Shine; Quick Morning Flow - 30 min - Level 2
Stress Rescue - 20 min - Level 1
Unfolding the Lotus - 60 min - Level 2

also You can look my other last: Yoga-posts

General
Complete name Rise and Shine; Quick Morning Flow - 30 min - Level 2.mp4
Format : MPEG-4
Format profile : Base Media / Version 2
Codec ID : mp42 (isom/iso2/avc1/mp41)
File size : 206 MiB
Duration : 24 min 39 s
Overall bit rate mode : Variable
Overall bit rate : 1 166 kb/s
Encoded date : UTC 2017-06-30 10:52:02
Tagged date : UTC 2017-06-30 10:52:02
Writing application : HandBrake 1.0.7 2017040900

Video
ID : 1
Format : AVC
Format/Info : Advanced Video Codec
Format profile : Main@L4
Format settings, CABAC : Yes
Format settings, ReFrames : 4 frames
Codec ID : avc1
Codec ID/Info : Advanced Video Coding
Duration : 24 min 39 s
Bit rate : 1 000 kb/s
Width : 1 280 pixels
Height : 720 pixels
Display aspect ratio : 16:9
Frame rate mode : Constant
Frame rate : 24.000 FPS
Color space : YUV
Chroma subsampling : 4:2:0
Bit depth : 8 bits
Scan type : Progressive
Bits/(Pixel*Frame) : 0.045
Stream size : 176 MiB (86%)
Writing library : x264 core 148 r2708 86b7198
Encoding settings : cabac=1 / ref=1 / deblock=1:0:0 / analyse=0x1:0x111 / me=hex / subme=2 / psy=1 / psy_rd=1.00:0.00 / mixed_ref=0 / me_range=16 / chroma_me=1 / trellis=0 / 8x8dct=0 / cqm=0 / deadzone=21,11 / fast_pskip=1 / chroma_qp_offset=0 / threads=12 / lookahead_threads=4 / sliced_threads=0 / nr=0 / decimate=1 / interlaced=0 / bluray_compat=0 / constrained_intra=0 / bframes=3 / b_pyramid=2 / b_adapt=1 / b_bias=0 / direct=1 / weightb=1 / open_gop=0 / weightp=1 / keyint=240 / keyint_min=24 / scenecut=40 / intra_refresh=0 / rc_lookahead=10 / rc=2pass / mbtree=1 / bitrate=1000 / ratetol=1.0 / qcomp=0.60 / qpmin=0 / qpmax=69 / qpstep=4 / cplxblur=20.0 / qblur=0.5 / vbv_maxrate=20000 / vbv_bufsize=25000 / nal_hrd=none / filler=0 / ip_ratio=1.40 / aq=1:1.00
Encoded date : UTC 2017-06-30 10:52:02
Tagged date : UTC 2017-06-30 10:52:02
Color range : Limited
Color primaries : BT.709
Transfer characteristics : BT.709
Matrix coefficients : BT.709

Audio
ID : 2
Format : AAC
Format/Info : Advanced Audio Codec
Format profile : LC
Codec ID : 40
Duration : 24 min 39 s
Bit rate mode : Variable
Bit rate : 160 kb/s
Channel(s) : 2 channels
Channel positions : Front: L R
Sampling rate : 48.0 kHz
Frame rate : 46.875 FPS (1024 spf)
Compression mode : Lossy
Stream size : 28.3 MiB (14%)
Title : Stereo / Stereo
Default : Yes
Alternate group : 1
Encoded date : UTC 2017-06-30 10:52:02
Tagged date : UTC 2017-06-30 10:52:02
Screenshots

Udaya - Sonya Genel Classes

Udaya - Sonya Genel Classes

Udaya - Sonya Genel Classes

Udaya - Sonya Genel Classes

Exclusive eLearning Videos ParRus-blogadd to bookmarks

Udaya - Sonya Genel Classes