Subcategories

Gray Institute - Certification in Applied Functional Science

Posted By: ParRus
Gray Institute - Certification in Applied Functional Science

Gray Institute - Certification in Applied Functional Science
WEBRip | MP4 + PDF Guides | English | 854 x 480 | AVC ~719 kbps | 29.970 fps
AAC ~157 Kbps | 48.0 KHz | 2 channels | 21:55:46 | 9.96 GB
Genre: eLearning Video / Health, Rehabilitation, Sports

Certification in Applied Functional Science (CAFS) gives movement professionals the skills and knowledge to approach each individual according to their unique goals and daily function. Combining the principles of Applied Functional Science with your existing skill sets and experience, learn how to take an individualized approach to program design and create truly functional programs for your clients.
Utilizing the Local to Global spectrum method, learn how to identify common dysfunction, create mobility and progress to stability and strength for any range of functional needs and for any population.

Whether you are just starting on your journey of Applied Functional Science or are looking to continue growing, CAFS will provide a new experience by delivering the authentic truths of biomechanics and enforcing your understanding with clinical examples of how to apply these principles.

CAFS is a lockstep course meaning that the participant must complete each section in order and pass each exam before progressing on to the next section. Participants must score 80% on each exam to pass but may retake the exam in the event they fail. Exams are Multiple choice and True or False format.

CAFS Presenters

Lenny Parracino
Pat McCloskey
Gary Gray
Doug Gray
Dave Tiberio

What you will learn:

The Process of Applied Functional Science
10 Observational Essentials of All Movement
The 8 Fundamental Movement Patterns
Endless Movement Variables
The Local/Global Movement Continuum
Individualized program design using a four step process.
Functional Movement Assessments
Utilize Local and Global assessments and corrections for the following areas: Foot/Ankle, Knee, Hip, Lumbar Spine, Thoracic Spine, Cervical Spine and Shoulder.

Curriculum Procedure:

1. Enroll in the curriculum.
2. Take course.
3. View the course content.
4. Take the test. (You must score 70% to pass. If you do not pass, you may retake the test.)
5. After each step, click “Go to Next Step” until you have passed.
6. Print your certificate of completion for each course and/or the entire curriculum.

Curriculum Courses:

Module 1: CAFS – Introduction
Module 2: CAFS – Foundations of Movement Science
Module 3: CAFS – Assessment and Programing Strategies
Module 4: CAFS – Global (Fundamental) Movement Techniques
Module 5: CAFS – Local Movement Techniques
Module 6: CAFS – Program Design & Programming Variables
Module 7: CAFS – Conclusion and Bonus Material

Value: $549
More Info: Salepage


also You can watch my other last: Rehabilitation-posts

General
Complete name : 03 - Global Movement Techniques 10 Observational Essentials.mp4
Format : MPEG-4
Format profile : Base Media
Codec ID : isom
File size : 277 MiB
Duration : 43mn 49s
Overall bit rate mode : Variable
Overall bit rate : 885 Kbps
Writing application : Lavf55.15.100

Video
ID : 1
Format : AVC
Format/Info : Advanced Video Codec
Format profile : Main@L3.1
Format settings, CABAC : No
Format settings, ReFrames : 2 frames
Codec ID : avc1
Codec ID/Info : Advanced Video Coding
Duration : 43mn 49s
Bit rate mode : Variable
Bit rate : 719 Kbps
Maximum bit rate : 1 200 Kbps
Width : 854 pixels
Height : 480 pixels
Display aspect ratio : 16:9
Frame rate mode : Variable
Frame rate : 29.970 fps
Minimum frame rate : 29.412 fps
Maximum frame rate : 30.303 fps
Standard : NTSC
Color space : YUV
Chroma subsampling : 4:2:0
Bit depth : 8 bits
Scan type : Progressive
Bits/(Pixel*Frame) : 0.059
Stream size : 225 MiB (81%)
Color range : Limited

Audio
ID : 2
Format : AAC
Format/Info : Advanced Audio Codec
Format profile : LC
Codec ID : 40
Duration : 43mn 49s
Bit rate mode : Constant
Bit rate : 157 Kbps
Channel(s) : 2 channels
Channel positions : Front: L R
Sampling rate : 48.0 KHz
Compression mode : Lossy
Stream size : 49.3 MiB (18%)

Screenshots

Gray Institute - Certification in Applied Functional Science

Gray Institute - Certification in Applied Functional Science

Gray Institute - Certification in Applied Functional Science

Gray Institute - Certification in Applied Functional Science

Gray Institute - Certification in Applied Functional Science

Gray Institute - Certification in Applied Functional Science

Gray Institute - Certification in Applied Functional Science

Gray Institute - Certification in Applied Functional Science

Gray Institute - Certification in Applied Functional Science

Gray Institute - Certification in Applied Functional Science

Exclusive eLearning Videos ParRus-blogadd to bookmarks

Gray Institute - Certification in Applied Functional Science