Tags
Language
Tags

Gracie Academy - Gracie BullyProof Program

Posted By: ParRus
Gracie Academy - Gracie BullyProof Program

Gracie Academy - Gracie BullyProof Program
11xDVDRip's | English | AVI | 624 x 352 | XviD ~927 kbps | 29.970 fps
MP3 | 97.5 Kbps | 48.0 KHz | 2 channels | 15:02:02 | 6.6 GB
Genre: eLearning Video / Martial Arts, Jiu-Jitsu

Ryron and Rener Gracie started doing Gracie Jiu-Jitsu before they could walk, and in 2003, their grandfather, Grand Master Helio Gracie awarded them their black belts in the art. Today, they attribute all their success to the confidence, discipline, and principles of healthy living that were instilled in them during their early years.
For the first time ever, the child-teaching process used by the Gracie Family for three generations is available on DVD! In this ground-breaking instructional series, Ryron and Rener walk you, step by step, through the EXACT process that their father used on them, between the ages of 4 and 14, so you can prepare your child for life the Gracie way - all in the comfort of your own home!
-According to the National Education Association, 160,000 kids miss school every day in the U.S. just to avoid a bully.
-According to the U.S. Secret Service, the majority of school shootings have been linked to cases of excessive bullying.
-Studies show that adults who were bullied as children have higher levels of depression and lower self-esteem than those who weren't.
-All DVDs are in Region 1 format and were designed to be compatible with all Region 1 DVD players.

Disc 1: Parent Preparation Course
Not only is Gracie BULLYPROOF the first self-defense instructional DVD series exclusively for kids, but it is the only instructional DVD series that is specifically designed to teach you, the parent, how to teach your child. On disc 1, Ryron and Rener teach you everything you need to know to build your child's confidence and ensure the success of the Gracie BULLYPROOF program in your home.

Disc 2-3: Gracie Games™
In the beginning, Rorion didn't teach his children Gracie Jiu-Jitsu, he "played" Gracie Jiu-Jitsu. Using a series of 10 playful jiu-jitsu games, Rorion engaged his children in the learning process while informally introducing them to the fundamental principles of Gracie Jiu-Jitsu. All 10 Gracie Games are featured on discs 2 & 3.

Disc 4: Rules of Engagement
On disc 4, your child will learn the definitive rules regarding the use of their techniques as well as the Verbal Jiu-Jitsu strategies that will enable them to take as stand against persistent verbal bullies. By introducing your child to the Rules of Engagement before they learn the Jr. Combatives techniques, you will ensure that they do not abuse their power, and you will give them the confidence that they will not be reprimanded in the event that they ever have to use the techniques in self-defense.

Discs 5-9: Jr. Combatives™
Only after they fell in love with the fun aspect of the art, did Rorion begin teaching his children, the 33 highly-effective non-violent techniques featured in the Jr. Combatives course. By teaching these techniques to your child, you will dramatically increase their ability to defend themselves and, more importantly, boost their confidence so dramatically, that they are less likely to be targeted by bullies.

Disc 10: Belt Testing Process
Here at the Gracie Academy, belt promotions are used to indicate progress and to keep kids excited about the learning process. Through a revolutionary Video Evaluation Process, your child will be able to demonstrate their skills and qualify for official belt promotions from home! On disc 10, the process is broken down in detail and Roran Gracie (10) demonstrates the complete white-yellow belt testing procedure.

***Free Bonus Course***
Along with your collection, you will receive the Gracie KidSAFE™ Child Abduction Prevention Course on DVD absolutely free! In six powerful mini-courses the Gracie Brothers empower your children with straight talks on the most common ploys used by kidnappers as well as the specific strategies they used as kids to avoid falling prey to the ultimate kidnapper - drugs. This information alone may save your child's life!

also You can watch my other helpful: Martial Arts-posts
(if old file-links don't show activity, try copy-paste them to the address bar)

General
Complete name : Gracie.BULLYPROOF.Disc.3.Part.2.DVDRip.XviD.avi
Format : AVI
Format/Info : Audio Video Interleave
File size : 768 MiB
Duration : 1 h 43 min
Overall bit rate mode : Variable
Overall bit rate : 1 039 kb/s
Writing application : VirtualDubMod 1.5.4.1 (build 2178/release)
Writing library : VirtualDubMod build 2178/release

Video
ID : 0
Format : MPEG-4 Visual
Format profile : Advanced Simple@L5
Format settings : BVOP1 / Custom Matrix
Format settings, BVOP : 1
Format settings, QPel : No
Format settings, GMC : No warppoints
Format settings, Matrix : Custom
Codec ID : XVID
Codec ID/Hint : XviD
Duration : 1 h 43 min
Bit rate : 927 kb/s
Width : 624 pixels
Height : 352 pixels
Display aspect ratio : 16:9
Frame rate : 29.970 (30000/1001) FPS
Color space : YUV
Chroma subsampling : 4:2:0
Bit depth : 8 bits
Scan type : Progressive
Compression mode : Lossy
Bits/(Pixel*Frame) : 0.141
Stream size : 686 MiB (89%)
Writing library : XviD 1.2.1 (UTC 2008-12-04)

Audio
ID : 1
Format : MPEG Audio
Format version : Version 1
Format profile : Layer 3
Format settings : Joint stereo / MS Stereo
Codec ID : 55
Codec ID/Hint : MP3
Duration : 1 h 43 min
Bit rate mode : Variable
Bit rate : 97.5 kb/s
Nominal bit rate : 128 kb/s
Channel(s) : 2 channels
Sampling rate : 48.0 kHz
Frame rate : 41.667 FPS (1152 SPF)
Compression mode : Lossy
Stream size : 72.1 MiB (9%)
Alignment : Aligned on interleaves
Interleave, duration : 24 ms (0.72 video frame)
Interleave, preload duration : 516 ms
Writing library : LAME3.98r
Encoding settings : -m j -V 4 -q 2 -lowpass 17 –abr 128
Language : English
Screenshots

Gracie Academy - Gracie BullyProof Program

Gracie Academy - Gracie BullyProof Program

Gracie Academy - Gracie BullyProof Program

Gracie Academy - Gracie BullyProof Program

Gracie Academy - Gracie BullyProof Program

✅ Exclusive eLearning Videos ParRus-blogadd to bookmarks

Feel free to contact me PM
when links are dead or want any repost

Gracie Academy - Gracie BullyProof Program