Hot Tub Time Machine (2010)

Posted By: Tavaz
SD / DVDRip IMDb
Hot Tub Time Machine (2010)

Hot Tub Time Machine (2010)
AVI | 1280x688 | MP4V-ES @ 3048 kbps | AC-3 @ 448 kbps | 1 h 40 min | 2.47 GiB
Genre: Comedy, Sci-Fi

A malfunctioning time machine at a ski resort takes a man back to 1986 with his two friends and nephew, where they must relive a fateful night and not change anything to make sure the nephew is born.


rx-httm-720.avi (2.5 GB)



General
Complete name : ./rx-httm-720.avi
Format : AVI
Format/Info : Audio Video Interleave
Format profile : OpenDML
File size : 2.47 GiB
Duration : 1 h 40 min
Overall bit rate : 3 508 kb/s
Writing application : VirtualDubMod 1.5.10.2 (build 2540/release)
Writing library : VirtualDubMod build 2540/release

Video
ID : 0
Format : MPEG-4 Visual
Format profile : Advanced Simple@L5
Format settings : BVOP2
Format settings, BVOP : 2
Format settings, QPel : No
Format settings, GMC : No warppoints
Format settings, Matrix : Default (MPEG)
Codec ID : XVID
Codec ID/Hint : XviD
Duration : 1 h 40 min
Bit rate : 3 048 kb/s
Width : 1 280 pixels
Height : 688 pixels
Display aspect ratio : 1.85:1
Frame rate : 23.976 (24000/1001) FPS
Color space : YUV
Chroma subsampling : 4:2:0
Bit depth : 8 bits
Scan type : Progressive
Compression mode : Lossy
Bits/(Pixel*Frame) : 0.144
Stream size : 2.14 GiB (87%)
Writing library : XviD 1.2.1 (UTC 2008-12-04)

Audio
ID : 1
Format : AC-3
Format/Info : Audio Coding 3
Format settings, Endianness : Big
Codec ID : 2000
Duration : 1 h 40 min
Bit rate mode : Constant
Bit rate : 448 kb/s
Channel(s) : 6 channels
Channel positions : Front: L C R, Side: L R, LFE
Sampling rate : 48.0 kHz
Frame rate : 31.250 FPS (1536 SPF)
Bit depth : 16 bits
Compression mode : Lossy
Stream size : 322 MiB (13%)
Alignment : Split accross interleaves
Interleave, duration : 42 ms (1.00 video frame)
Interleave, preload duration : 500 ms
Service kind : Complete Main





Hot Tub Time Machine (2010)


Hot Tub Time Machine (2010)


Hot Tub Time Machine (2010)


Hot Tub Time Machine (2010)


Hot Tub Time Machine (2010)