Tags
Language
Tags

Queen`s Blade: Rurou no Senshi (2009)

Posted By: Lebedev30
Queen`s Blade: Rurou no Senshi (2009)

Queen`s Blade: Rurou no Senshi (2009)
BD-Remux | m2ts | 1920x1080 | H264@~35 Mbps | 12x ~ 23mn + SP 6х ~ 3mn | 12x ~6.3 Gb + SP 6х ~ 700 Mb
Japanese PCM@1536 Kbps | 2 channels | Subtitles: none
Genre: action, ecchi, fantasy, seinen, swordplay


* Based by a gamebook by Hobby Japan.

In four years time the competition that will decide who the next Queen shall be will start. The strongest warrior will continue to rule the country according to tradition and expand it. The contestants need only be older than 12 years. They need not be human, intelligent or even of that country. The rules for the tournament are simple: murder is allowed. Any weapon can be chosen. The winner is decided when one of the participants flees or cannot move any more. Such events are broadcast through a crystal sphere by the court's magic teacher to all the population to see and enjoy.


01. High Spirits - Vagrant Warrior
02. Ambitious Undertaking - Warrior Shrine Maiden
03. Full Power - Veteran Soldiers
04. Rivalry - The General Of Storm
05. Resurrected Curse - The Queen Of Ancient Times
06. Promise - Forest of the Watchman
07. Descent - Angel of Glory
08. Secret Maneuver - Fanged Assassin
09. Sincerity - Arms Dealer and Steel Princess
10. Enlightenment - Blow of the Dragon
11. Severe Spirit - Deadly Combat`s End
12. Gates Open - The Way to the Queen


General
Format : BDAV
Format/Info : Blu-ray Video
File size : 6.51 GiB
Duration : 23mn 44s
Overall bit rate mode : Variable
Overall bit rate : 39.2 Mbps
Maximum Overall bit rate : 48.0 Mbps

Video
ID : 4113 (0x1011)
Menu ID : 1 (0x1)
Format : AVC
Format/Info : Advanced Video Codec
Format profile : High@L4.1
Format settings, CABAC : Yes
Format settings, ReFrames : 4 frames
Codec ID : 27
Duration : 23mn 44s
Bit rate mode : Variable
Bit rate : 36.1 Mbps
Maximum bit rate : 38.0 Mbps
Width : 1 920 pixels
Height : 1 080 pixels
Display aspect ratio : 16:9
Frame rate : 23.976 fps
Color space : YUV
Chroma subsampling : 4:2:0
Bit depth : 8 bits
Scan type : Progressive
Bits/(Pixel*Frame) : 0.727
Stream size : 5.99 GiB (92%)
Color primaries : BT.709
Transfer characteristics : BT.709
Matrix coefficients : BT.709
Color range : Limited

Audio
ID : 4352 (0x1100)
Menu ID : 1 (0x1)
Format : PCM
Format settings, Endianness : Big
Format settings, Sign : Signed
Muxing mode : Blu-ray
Codec ID : 128
Duration : 23mn 44s
Bit rate mode : Constant
Bit rate : 1 536 Kbps
Channel(s) : 2 channels
Channel positions : Front: L R
Sampling rate : 48.0 KHz
Bit depth : 16 bits
Stream size : 261 MiB (4%)


Screenshots

Queen`s Blade: Rurou no Senshi (2009)

Queen`s Blade: Rurou no Senshi (2009)

Queen`s Blade: Rurou no Senshi (2009)


My publications | Rss Channel