2001: A Space Odyssey (1968)

Posted By: Tavaz
1080p (FullHD) / BDRip IMDb
2001: A Space Odyssey (1968)

2001: A Space Odyssey (1968)
BDRip | MKV | 1920x864 | English | H264 @ 8821 kbps | AC-3 @ 640 kbps | 2 h 28 min | 9.84 GiB
Genre: Adventure, Sci-Fi

Humanity finds a mysterious object buried beneath the lunar surface and sets off to find its origins with the help of HAL 9000, the world's most advanced super computer.

2001.aso.1080p-mnnkps.mkv (9.8 GB)
2001.aso.1080p-mnnkps.srt (50.8 KB)
2001.aso.1080p-mnnkps.sample.mkv (85.9 MB)



General
Unique ID : 240908032144629820441110966615013915384 (0xB53D3305008360529F5CFEB3EE98FAF8)
Complete name : ./2001.aso.1080p-mnnkps.mkv
Format : Matroska
Format version : Version 4 / Version 2
File size : 9.84 GiB
Duration : 2 h 28 min
Overall bit rate : 9 461 kb/s
Encoded date : UTC 2014-03-18 21:01:40
Writing application : mkvmerge v6.8.0 ('Theme for Great Cities') 64bit built on Mar 2 2014 21:34:26
Writing library : libebml v1.3.0 + libmatroska v1.4.1

Video
ID : 1
Format : AVC
Format/Info : Advanced Video Codec
Format profile : High@L4.1
Format settings : CABAC / 5 Ref Frames
Format settings, CABAC : Yes
Format settings, RefFrames : 5 frames
Codec ID : V_MPEG4/ISO/AVC
Duration : 2 h 28 min
Bit rate : 8 821 kb/s
Width : 1 920 pixels
Height : 864 pixels
Display aspect ratio : 2.222
Frame rate mode : Constant
Frame rate : 23.976 (24000/1001) FPS
Color space : YUV
Chroma subsampling : 4:2:0
Bit depth : 8 bits
Scan type : Progressive
Bits/(Pixel*Frame) : 0.222
Stream size : 8.98 GiB (91%)
Writing library : x264 core 142 r2409 d6b4e63
Encoding settings : cabac=1 / ref=5 / deblock=1:0:0 / analyse=0x3:0x133 / me=umh / subme=7 / psy=1 / psy_rd=1.00:0.00 / mixed_ref=1 / me_range=16 / chroma_me=1 / trellis=1 / 8x8dct=1 / cqm=0 / deadzone=21,11 / fast_pskip=0 / chroma_qp_offset=-2 / threads=12 / lookahead_threads=2 / sliced_threads=0 / nr=0 / decimate=1 / interlaced=0 / bluray_compat=0 / constrained_intra=0 / bframes=3 / b_pyramid=2 / b_adapt=2 / b_bias=0 / direct=3 / weightb=1 / open_gop=0 / weightp=2 / keyint=240 / keyint_min=23 / scenecut=40 / intra_refresh=0 / rc_lookahead=50 / rc=2pass / mbtree=1 / bitrate=8821 / ratetol=1.0 / qcomp=0.60 / qpmin=0 / qpmax=69 / qpstep=4 / cplxblur=20.0 / qblur=0.5 / ip_ratio=1.40 / aq=1:1.00
Language : English
Default : Yes
Forced : No

Audio
ID : 2
Format : AC-3
Format/Info : Audio Coding 3
Format settings, Endianness : Big
Codec ID : A_AC3
Duration : 2 h 28 min
Bit rate mode : Constant
Bit rate : 640 kb/s
Channel(s) : 6 channels
Channel positions : Front: L C R, Side: L R, LFE
Sampling rate : 48.0 kHz
Frame rate : 31.250 FPS (1536 SPF)
Bit depth : 16 bits
Compression mode : Lossy
Stream size : 681 MiB (7%)
Language : English
Service kind : Complete Main
Default : Yes
Forced : No

Menu
00:00:00.000 : :00:00:00.000
00:02:57.177 : :00:02:57.177
00:04:39.112 : :00:04:39.112
00:11:40.033 : :00:11:40.033
00:16:58.017 : :00:16:58.017
00:19:53.025 : :00:19:53.025
00:25:29.027 : :00:25:29.027
00:27:38.156 : :00:27:38.156
00:29:29.601 : :00:29:29.601
00:33:46.024 : :00:33:46.024
00:41:08.633 : :00:41:08.633
00:45:37.568 : :00:45:37.568
00:50:56.553 : :00:50:56.553
00:54:42.946 : :00:54:42.946
00:58:33.677 : :00:58:33.677
01:03:55.999 : :01:03:55.999
01:06:05.295 : :01:06:05.295
01:12:10.660 : :01:12:10.660
01:18:51.894 : :01:18:51.894
01:23:01.476 : :01:23:01.476
01:27:02.217 : :01:27:02.217
01:27:49.264 : :01:27:49.264
01:30:07.736 : :01:30:07.736
01:32:50.899 : :01:32:50.899
01:38:35.576 : :01:38:35.576
01:40:47.083 : :01:40:47.083
01:45:35.496 : :01:45:35.496
01:49:41.575 : :01:49:41.575
01:55:19.746 : :01:55:19.746
01:57:06.186 : :01:57:06.186
02:01:28.281 : :02:01:28.281
02:11:33.385 : :02:11:33.385
02:17:57.603 : :02:17:57.603
02:20:33.425 : :02:20:33.425





2001: A Space Odyssey (1968)


2001: A Space Odyssey (1968)


2001: A Space Odyssey (1968)


2001: A Space Odyssey (1968)