2001: A Space Odyssey (1968) [Remastered]

Posted By: Without
1080p (FullHD) / BDRip IMDb
2001: A Space Odyssey (1968) [Remastered]

2001: A Space Odyssey (1968)
BRRip | AVI | 720x330 | XviD@1054 kb/s | English MP3@192 kb/s
Subs: English | 2 channels | 2 h 28 min | 1.31 GB
BDRip 720p | MKV | 1280x584 | AVC@4796 kb/s | English DTS@1509 kb/s
Subs: English | 6 channels | 2 h 28 min | 6.55 GB
BDRip 1080p | MKV | 1920x872 | AVC@9002 kb/s | English DTS@1509 kb/s
Subs: English | 6 channels | 2 h 28 min | 10.9 GB
Genre: Adventure | Sci-Fi

A space-opera spanning the dawn of man to humanity reaching the stars, 2001: A Space Odyssey tells the story of the Black Monolith, humanity's evolution and the rise of A.I.'s ultimate supercomputer HAL 9000.

IMDB - Top Rated Movies #90 | Won 1 Oscar. Another 14 wins & 10 nominations.


General
2001.A.Space.Odyssey.1968.REMASTERED.BRRip.XviD.MP3-XVID.avi
Format : AVI
Format/Info : Audio Video Interleave
Format profile : OpenDML
File size : 1.31 GiB
Duration : 2 h 28 min
Overall bit rate : 1 260 kb/s
Writing application : Lavf58.12.100

Video
ID : 0
Format : MPEG-4 Visual
Format profile : Simple@L5
Format settings, BVOP : No
Format settings, QPel : No
Format settings, GMC : No warppoints
Format settings, Matrix : Default (H.263)
Codec ID : XVID
Codec ID/Hint : XviD
Duration : 2 h 28 min
Bit rate : 1 054 kb/s
Width : 720 pixels
Height : 330 pixels
Display aspect ratio : 2.2:1
Frame rate : 23.976 (24000/1001) FPS
Color space : YUV
Chroma subsampling : 4:2:0
Bit depth : 8 bits
Scan type : Progressive
Compression mode : Lossy
Bits/(Pixel*Frame) : 0.185
Stream size : 1.10 GiB (84%)
Writing library : Lavc58.18.100

Audio
ID : 1
Format : MPEG Audio
Format version : Version 1
Format profile : Layer 3
Mode : Joint stereo
Mode extension : MS Stereo
Codec ID : 55
Codec ID/Hint : MP3
Duration : 2 h 28 min
Bit rate mode : Constant
Bit rate : 192 kb/s
Channel(s) : 2 channels
Sampling rate : 48.0 kHz
Compression mode : Lossy
Stream size : 204 MiB (15%)
Alignment : Aligned on interleaves
Interleave, duration : 24 ms (0.58 video frame)
Interleave, preload duration : 24 ms


General
2001.A.Space.Odyssey.1968.REMASTERED.720p.BluRay.X264-AMIABLE.mkv
Format : Matroska
Format version : Version 4 / Version 2
File size : 6.56 GiB
Duration : 2 h 28 min
Overall bit rate : 6 306 kb/s
Encoded date : UTC 2010-02-22 21:41:29
Writing application : no_variable_data
Writing library : no_variable_data

Video
ID : 1
Format : AVC
Format/Info : Advanced Video Codec
Format profile : High@L4.1
Format settings, CABAC : Yes
Format settings, ReFrames : 11 frames
Codec ID : V_MPEG4/ISO/AVC
Duration : 2 h 28 min
Bit rate : 4 796 kb/s
Width : 1 280 pixels
Height : 584 pixels
Display aspect ratio : 2.2:1
Frame rate mode : Constant
Frame rate : 23.976 (24000/1001) FPS
Color space : YUV
Chroma subsampling : 4:2:0
Bit depth : 8 bits
Scan type : Progressive
Bits/(Pixel*Frame) : 0.268
Stream size : 4.86 GiB (74%)
Writing library : x264 core 157 r2935 545de2f
Encoding settings : cabac=1 / ref=11 / deblock=1:-3:-3 / analyse=0x3:0x133 / me=umh / subme=10 / psy=1 / psy_rd=1.05:0.00 / mixed_ref=1 / me_range=32 / chroma_me=1 / trellis=2 / 8x8dct=1 / cqm=0 / deadzone=21,11 / fast_pskip=0 / chroma_qp_offset=-2 / threads=18 / lookahead_threads=3 / sliced_threads=0 / nr=0 / decimate=1 / interlaced=0 / bluray_compat=0 / constrained_intra=0 / bframes=8 / b_pyramid=2 / b_adapt=2 / b_bias=0 / direct=3 / weightb=1 / open_gop=0 / weightp=2 / keyint=240 / keyint_min=24 / scenecut=40 / intra_refresh=0 / rc_lookahead=60 / rc=2pass / mbtree=1 / bitrate=4796 / ratetol=1.0 / qcomp=0.60 / qpmin=0 / qpmax=69 / qpstep=4 / cplxblur=20.0 / qblur=0.5 / ip_ratio=1.30 / aq=3:0.75
Default : Yes
Forced : No
Statistics Tags Issue : no_variable_data 1970-01-01 00:00:00 / no_variable_data 2010-02-22 21:41:29
FromStats_BitRate : 4794662
FromStats_Duration : 02:28:51.715000000
FromStats_FrameCount : 214147
FromStats_StreamSize : 5353070153

Audio
ID : 2
Format : DTS
Format/Info : Digital Theater Systems
Mode : 16
Format settings, Endianness : Big
Codec ID : A_DTS
Duration : 2 h 28 min
Bit rate mode : Constant
Bit rate : 1 509 kb/s
Channel(s) : 6 channels
Channel positions : Front: L C R, Side: L R, LFE
Sampling rate : 48.0 kHz
Frame rate : 93.750 FPS (512 spf)
Bit depth : 24 bits
Compression mode : Lossy
Stream size : 1.57 GiB (24%)
Language : English
Default : Yes
Forced : No
Statistics Tags Issue : no_variable_data 1970-01-01 00:00:00 / no_variable_data 2010-02-22 21:41:29
FromStats_BitRate : 1508999
FromStats_Duration : 02:28:51.723000000
FromStats_FrameCount : 837349
FromStats_StreamSize : 1684746188

Text #1
ID : 3
Format : UTF-8
Codec ID : S_TEXT/UTF8
Codec ID/Info : UTF-8 Plain Text
Language : English
Default : No
Forced : No
Statistics Tags Issue : no_variable_data 1970-01-01 00:00:00 / no_variable_data 2010-02-22 21:41:29
FromStats_BitRate : 40
FromStats_Duration : 01:31:19.057000000
FromStats_FrameCount : 641
FromStats_StreamSize : 27455

Text #2
ID : 4
Format : UTF-8
Codec ID : S_TEXT/UTF8
Codec ID/Info : UTF-8 Plain Text
Title : SDH
Language : English
Default : No
Forced : No
Statistics Tags Issue : no_variable_data 1970-01-01 00:00:00 / no_variable_data 2010-02-22 21:41:29
FromStats_BitRate : 28
FromStats_Duration : 02:17:49.469000000
FromStats_FrameCount : 667
FromStats_StreamSize : 28991

Menu
00:00:00.000 : en:00:00:00.000
00:02:57.094 : en:00:02:57.094
00:04:39.029 : en:00:04:39.029
00:11:39.866 : en:00:11:39.866
00:16:57.892 : en:00:16:57.892
00:19:52.942 : en:00:19:52.942
00:25:28.944 : en:00:25:28.944
00:27:38.073 : en:00:27:38.073
00:29:29.434 : en:00:29:29.434
00:33:46.775 : en:00:33:46.775
00:41:08.549 : en:00:41:08.549
00:45:37.401 : en:00:45:37.401
00:50:56.470 : en:00:50:56.470
00:54:41.695 : en:00:54:41.695
00:58:33.635 : en:00:58:33.635
01:03:55.957 : en:01:03:55.957
01:06:05.211 : en:01:06:05.211
01:12:10.576 : en:01:12:10.576
01:18:51.769 : en:01:18:51.769
01:23:01.435 : en:01:23:01.435
01:27:02.134 : en:01:27:02.134
01:27:49.181 : en:01:27:49.181
01:30:07.652 : en:01:30:07.652
01:32:50.774 : en:01:32:50.774
01:38:35.493 : en:01:38:35.493
01:40:46.999 : en:01:40:46.999
01:45:35.454 : en:01:45:35.454
01:49:41.450 : en:01:49:41.450
01:55:19.579 : en:01:55:19.579
01:57:06.061 : en:01:57:06.061
02:01:28.114 : en:02:01:28.114
02:11:33.302 : en:02:11:33.302
02:17:57.519 : en:02:17:57.519
02:20:33.342 : en:02:20:33.342


General
2001.A.Space.Odyssey.1968.REMASTERED.1080p.BluRay.X264-AMIABLE.mkv
Format : Matroska
Format version : Version 4 / Version 2
File size : 10.9 GiB
Duration : 2 h 28 min
Overall bit rate : 10.5 Mb/s
Encoded date : UTC 2010-02-22 21:41:29
Writing application : no_variable_data
Writing library : no_variable_data

Video
ID : 1
Format : AVC
Format/Info : Advanced Video Codec
Format profile : High@L4.1
Format settings, CABAC : Yes
Format settings, ReFrames : 4 frames
Codec ID : V_MPEG4/ISO/AVC
Duration : 2 h 28 min
Bit rate : 9 002 kb/s
Width : 1 920 pixels
Height : 872 pixels
Display aspect ratio : 2.2:1
Frame rate mode : Constant
Frame rate : 23.976 (24000/1001) FPS
Color space : YUV
Chroma subsampling : 4:2:0
Bit depth : 8 bits
Scan type : Progressive
Bits/(Pixel*Frame) : 0.224
Stream size : 9.14 GiB (84%)
Writing library : x264 core 157 r2935 545de2f
Encoding settings : cabac=1 / ref=4 / deblock=1:-3:-3 / analyse=0x3:0x133 / me=umh / subme=10 / psy=1 / psy_rd=1.05:0.00 / mixed_ref=1 / me_range=48 / chroma_me=1 / trellis=2 / 8x8dct=1 / cqm=0 / deadzone=21,11 / fast_pskip=0 / chroma_qp_offset=-2 / threads=24 / lookahead_threads=4 / sliced_threads=0 / nr=0 / decimate=1 / interlaced=0 / bluray_compat=0 / constrained_intra=0 / bframes=8 / b_pyramid=2 / b_adapt=2 / b_bias=0 / direct=3 / weightb=1 / open_gop=0 / weightp=2 / keyint=240 / keyint_min=24 / scenecut=40 / intra_refresh=0 / rc_lookahead=60 / rc=2pass / mbtree=1 / bitrate=9002 / ratetol=1.0 / qcomp=0.60 / qpmin=0 / qpmax=69 / qpstep=4 / cplxblur=20.0 / qblur=0.5 / ip_ratio=1.30 / aq=3:0.75
Default : Yes
Forced : No
Statistics Tags Issue : no_variable_data 1970-01-01 00:00:00 / no_variable_data 2010-02-22 21:41:29
FromStats_BitRate : 8998307
FromStats_Duration : 02:28:51.715000000
FromStats_FrameCount : 214147
FromStats_StreamSize : 10046289985

Audio
ID : 2
Format : DTS
Format/Info : Digital Theater Systems
Mode : 16
Format settings, Endianness : Big
Codec ID : A_DTS
Duration : 2 h 28 min
Bit rate mode : Constant
Bit rate : 1 509 kb/s
Channel(s) : 6 channels
Channel positions : Front: L C R, Side: L R, LFE
Sampling rate : 48.0 kHz
Frame rate : 93.750 FPS (512 spf)
Bit depth : 24 bits
Compression mode : Lossy
Stream size : 1.57 GiB (14%)
Language : English
Default : Yes
Forced : No
Statistics Tags Issue : no_variable_data 1970-01-01 00:00:00 / no_variable_data 2010-02-22 21:41:29
FromStats_BitRate : 1508999
FromStats_Duration : 02:28:51.723000000
FromStats_FrameCount : 837349
FromStats_StreamSize : 1684746188

Text #1
ID : 3
Format : UTF-8
Codec ID : S_TEXT/UTF8
Codec ID/Info : UTF-8 Plain Text
Language : English
Default : No
Forced : No
Statistics Tags Issue : no_variable_data 1970-01-01 00:00:00 / no_variable_data 2010-02-22 21:41:29
FromStats_BitRate : 40
FromStats_Duration : 01:31:19.057000000
FromStats_FrameCount : 641
FromStats_StreamSize : 27455

Text #2
ID : 4
Format : UTF-8
Codec ID : S_TEXT/UTF8
Codec ID/Info : UTF-8 Plain Text
Title : SDH
Language : English
Default : No
Forced : No
Statistics Tags Issue : no_variable_data 1970-01-01 00:00:00 / no_variable_data 2010-02-22 21:41:29
FromStats_BitRate : 28
FromStats_Duration : 02:17:49.469000000
FromStats_FrameCount : 667
FromStats_StreamSize : 28991

Menu
00:00:00.000 : en:00:00:00.000
00:02:57.094 : en:00:02:57.094
00:04:39.029 : en:00:04:39.029
00:11:39.866 : en:00:11:39.866
00:16:57.892 : en:00:16:57.892
00:19:52.942 : en:00:19:52.942
00:25:28.944 : en:00:25:28.944
00:27:38.073 : en:00:27:38.073
00:29:29.434 : en:00:29:29.434
00:33:46.775 : en:00:33:46.775
00:41:08.549 : en:00:41:08.549
00:45:37.401 : en:00:45:37.401
00:50:56.470 : en:00:50:56.470
00:54:41.695 : en:00:54:41.695
00:58:33.635 : en:00:58:33.635
01:03:55.957 : en:01:03:55.957
01:06:05.211 : en:01:06:05.211
01:12:10.576 : en:01:12:10.576
01:18:51.769 : en:01:18:51.769
01:23:01.435 : en:01:23:01.435
01:27:02.134 : en:01:27:02.134
01:27:49.181 : en:01:27:49.181
01:30:07.652 : en:01:30:07.652
01:32:50.774 : en:01:32:50.774
01:38:35.493 : en:01:38:35.493
01:40:46.999 : en:01:40:46.999
01:45:35.454 : en:01:45:35.454
01:49:41.450 : en:01:49:41.450
01:55:19.579 : en:01:55:19.579
01:57:06.061 : en:01:57:06.061
02:01:28.114 : en:02:01:28.114
02:11:33.302 : en:02:11:33.302
02:17:57.519 : en:02:17:57.519
02:20:33.342 : en:02:20:33.342



BRRip Screenshots

2001: A Space Odyssey (1968) [Remastered]

2001: A Space Odyssey (1968) [Remastered]

2001: A Space Odyssey (1968) [Remastered]


BDRip 720p Screenshots

2001: A Space Odyssey (1968) [Remastered]

2001: A Space Odyssey (1968) [Remastered]

2001: A Space Odyssey (1968) [Remastered]


BDRip 1080p Screenshots

2001: A Space Odyssey (1968) [Remastered]

2001: A Space Odyssey (1968) [Remastered]

2001: A Space Odyssey (1968) [Remastered]


Come Visit My Blog (•‿•)