Tags
Language
Tags

Choujikuu Seiki Orguss (1983-1984) (1993-1995)

Posted By: Lebedev30
1080p (FullHD) / BluRay Remux
Choujikuu Seiki Orguss (1983-1984) (1993-1995)

Tengen Toppa Gurren Lagann (2007)
BD-Remux | m2ts | 1920x1080 | H264@~37 Mbps | 43x ~ 26mn | 43x ~7 Gb
Japanese PCM@1536 Kbps | 2 channels | Subtitles: none
Genre: action, fantasy, piloted robot, romance, science fiction, time travel


Description:
The story focuses on Lt. Kei Katsuragi, a fighter pilot. His mission is to protect a new bomb while it is being planted. The bomb, the Space/Time oscillation bomb. The plans go wrong, Kei has to try and stop the bomb, messes up the settings and the bomb goes off, scrambling time, space and the dimensions. The series follows Kei adventures in this new dimension after he is picked up by the Emaan, a group of techno-gypsies, and his attempt to set the time/dimensions straight.



01. Space-Time Destruction
02. Lonely Wolf
03. Pretty Machine
04. Caravan
05. Lovers
06. Vanishing Point
07. I Love You
08. Runaway
09. Revolution
10. Barbarians
11. Dummy
12. Chiram Girl
13. Caspian Crater
14. Operation D
15. The Idioblast
16. The Factory
17. Seventeen
18. Sisters
19. Time Slip
20. Broken Through
21. Father
22. Reside or Decide
23. Destroyer
24. Mu
25. Tiram Soldier
26. Breakdown
27. Message
28. Come Back Lover
29. Choice
30. Outsider
31. Children
32. Lost World
33. Last Charge
34. Battlefield
35. Space-Time Creation
01. Fool`s Choice
02. Where Angels Fear to Tread
03. Fugitives
04. Searcher
05. Destroyer
06. Those who wish for Tomorrow



Format : BDAV
Format/Info : Blu-ray Video
File size : 6.66 GiB
Duration : 25 min 29 s
Overall bit rate mode : Variable
Overall bit rate : 37.4 Mb/s
Maximum Overall bit rate : 48.0 Mb/s

Video
ID : 4113 (0x1011)
Menu ID : 1 (0x1)
Format : AVC
Format/Info : Advanced Video Codec
Format profile : High@L4.1
Format settings : CABAC / 4 Ref Frames
Format settings, CABAC : Yes
Format settings, RefFrames : 4 frames
Codec ID : 27
Duration : 25 min 29 s
Bit rate mode : Variable
Bit rate : 34.4 Mb/s
Maximum bit rate : 38.0 Mb/s
Width : 1 920 pixels
Height : 1 080 pixels
Display aspect ratio : 16:9
Frame rate : 23.976 (24000/1001) FPS
Color space : YUV
Chroma subsampling : 4:2:0
Bit depth : 8 bits
Scan type : Progressive
Bits/(Pixel*Frame) : 0.691
Stream size : 6.12 GiB (92%)

Audio
ID : 4352 (0x1100)
Menu ID : 1 (0x1)
Format : PCM
Format settings : Big / Signed
Muxing mode : Blu-ray
Codec ID : 128
Duration : 25 min 29 s
Bit rate mode : Constant
Bit rate : 1 536 kb/s
Channel(s) : 2 channels
Channel positions : Front: L R
Sampling rate : 48.0 kHz
Bit depth : 16 bits
Stream size : 280 MiB (4%)


Screenshots

Choujikuu Seiki Orguss (1983-1984) (1993-1995)

Choujikuu Seiki Orguss (1983-1984) (1993-1995)

Choujikuu Seiki Orguss (1983-1984) (1993-1995)


My publications | Rss Channel