Psychic Academy Aura Banshou (2002) [4 DVD]

Posted By: Lebedev30
SD / DVD IMDb
Psychic Academy Aura Banshou (2002) [4 DVD]

Psychic Academy Aura Banshou (2002) [4 DVD]
DVD5 | ISO | NTSC 4:3 | 13.8 Gb
Audio: Japanese AC-3 48000 @ 448 Kbps
Subtitles: none
Genre: ecchi, love polygon, romance, school life, seinen, super power


Description:
* Based on the seinen manga by Katsu Aki, serialised in Magazine Z.

In the 21st century, a new method to categorize a person as a gifted one is established. This can be done by measuring his/her special power called Aura. The Saikikku Academy is such a special education facility for gifted children. To be accepted you only need to be considered gifted.

Contents:
Web, 24 episodes
Year: 29.03.2002 till 13.09.2002




Special features -> See the menu's screenshot


Psychic Academy Aura Banshou (2002) [4 DVD]


Psychic Academy Aura Banshou 01 DVD
DVD5 | ISO | NTSC 4:3 | 3.4 Gb
Audio: Japanese AC-3 48000 @ 448 Kbps



Video
ID : 224 (0xE0)
Format : MPEG Video
Format version : Version 2
Format profile : Main@Main
Format settings : CustomMatrix / BVOP
Format settings, BVOP : Yes
Format settings, Matrix : Custom
Format settings, GOP : M=3, N=15
Format settings, picture structure : Frame
Duration : 15 min 2 s
Bit rate mode : Variable
Bit rate : 8 878 kb/s
Maximum bit rate : 9 800 kb/s
Width : 720 pixels
Height : 480 pixels
Display aspect ratio : 4:3
Frame rate : 29.970 (30000/1001) FPS
Standard : NTSC
Color space : YUV
Chroma subsampling : 4:2:0
Bit depth : 8 bits
Scan type : Interlaced
Scan order : Top Field First
Compression mode : Lossy
Bits/(Pixel*Frame) : 0.857
Stream size : 955 MiB (93%)

Audio
ID : 189 (0xBD)-128 (0x80)
Format : AC-3
Format/Info : Audio Coding 3
Muxing mode : DVD-Video
Duration : 15 min 2 s
Bit rate mode : Constant
Bit rate : 448 kb/s
Channel(s) : 2 channels
Channel positions : Front: L R
Sampling rate : 48.0 kHz
Frame rate : 31.250 FPS (1536 SPF)
Bit depth : 16 bits
Compression mode : Lossy
Stream size : 48.2 MiB (5%)
Service kind : Complete Main


Psychic Academy Aura Banshou (2002) [4 DVD]


Psychic Academy Aura Banshou 02 DVD
DVD5 | ISO | NTSC 4:3 | 3.3 Gb
Audio: Japanese AC-3 48000 @ 448 Kbps



Video
ID : 224 (0xE0)
Format : MPEG Video
Format version : Version 2
Format profile : Main@Main
Format settings : CustomMatrix / BVOP
Format settings, BVOP : Yes
Format settings, Matrix : Custom
Format settings, GOP : M=3, N=15
Format settings, picture structure : Frame
Duration : 15 min 5 s
Bit rate mode : Variable
Bit rate : 8 852 kb/s
Maximum bit rate : 9 800 kb/s
Width : 720 pixels
Height : 480 pixels
Display aspect ratio : 4:3
Frame rate : 29.970 (30000/1001) FPS
Standard : NTSC
Color space : YUV
Chroma subsampling : 4:2:0
Bit depth : 8 bits
Scan type : Interlaced
Scan order : Top Field First
Compression mode : Lossy
Bits/(Pixel*Frame) : 0.855
Stream size : 955 MiB (93%)

Audio
ID : 189 (0xBD)-128 (0x80)
Format : AC-3
Format/Info : Audio Coding 3
Muxing mode : DVD-Video
Duration : 15 min 5 s
Bit rate mode : Constant
Bit rate : 448 kb/s
Channel(s) : 2 channels
Channel positions : Front: L R
Sampling rate : 48.0 kHz
Frame rate : 31.250 FPS (1536 SPF)
Bit depth : 16 bits
Compression mode : Lossy
Stream size : 48.3 MiB (5%)
Service kind : Complete Main


Psychic Academy Aura Banshou (2002) [4 DVD]


Psychic Academy Aura Banshou 03 DVD
DVD5 | ISO | NTSC 4:3 | 3.5 Gb
Audio: Japanese AC-3 48000 @ 448 Kbps



Video
ID : 224 (0xE0)
Format : MPEG Video
Format version : Version 2
Format profile : Main@Main
Format settings : CustomMatrix / BVOP
Format settings, BVOP : Yes
Format settings, Matrix : Custom
Format settings, GOP : M=3, N=15
Format settings, picture structure : Frame
Duration : 15 min 1 s
Bit rate mode : Variable
Bit rate : 8 894 kb/s
Maximum bit rate : 9 800 kb/s
Width : 720 pixels
Height : 480 pixels
Display aspect ratio : 4:3
Frame rate : 29.970 (30000/1001) FPS
Standard : NTSC
Color space : YUV
Chroma subsampling : 4:2:0
Bit depth : 8 bits
Scan type : Interlaced
Scan order : Top Field First
Compression mode : Lossy
Bits/(Pixel*Frame) : 0.859
Stream size : 955 MiB (93%)

Audio
ID : 189 (0xBD)-128 (0x80)
Format : AC-3
Format/Info : Audio Coding 3
Muxing mode : DVD-Video
Duration : 15 min 1 s
Bit rate mode : Constant
Bit rate : 448 kb/s
Channel(s) : 2 channels
Channel positions : Front: L R
Sampling rate : 48.0 kHz
Frame rate : 31.250 FPS (1536 SPF)
Bit depth : 16 bits
Compression mode : Lossy
Stream size : 48.1 MiB (5%)
Service kind : Complete Main


Psychic Academy Aura Banshou (2002) [4 DVD]


Psychic Academy Aura Banshou 04 DVD
DVD5 | ISO | NTSC 4:3 | 3.5 Gb
Audio: Japanese AC-3 48000 @ 448 Kbps



Video
ID : 224 (0xE0)
Format : MPEG Video
Format version : Version 2
Format profile : Main@Main
Format settings : CustomMatrix / BVOP
Format settings, BVOP : Yes
Format settings, Matrix : Custom
Format settings, GOP : M=3, N=15
Format settings, picture structure : Frame
Duration : 15 min 4 s
Bit rate mode : Variable
Bit rate : 8 862 kb/s
Maximum bit rate : 9 800 kb/s
Width : 720 pixels
Height : 480 pixels
Display aspect ratio : 4:3
Frame rate : 29.970 (30000/1001) FPS
Standard : NTSC
Color space : YUV
Chroma subsampling : 4:2:0
Bit depth : 8 bits
Scan type : Interlaced
Scan order : Top Field First
Compression mode : Lossy
Bits/(Pixel*Frame) : 0.856
Stream size : 955 MiB (93%)

Audio
ID : 189 (0xBD)-128 (0x80)
Format : AC-3
Format/Info : Audio Coding 3
Muxing mode : DVD-Video
Duration : 15 min 4 s
Bit rate mode : Constant
Bit rate : 448 kb/s
Channel(s) : 2 channels
Channel positions : Front: L R
Sampling rate : 48.0 kHz
Frame rate : 31.250 FPS (1536 SPF)
Bit depth : 16 bits
Compression mode : Lossy
Stream size : 48.3 MiB (5%)
Service kind : Complete Main


Screenshots

Psychic Academy Aura Banshou (2002) [4 DVD]

Psychic Academy Aura Banshou (2002) [4 DVD]

Psychic Academy Aura Banshou (2002) [4 DVD]