Ijigen no Sekai El-Hazard (1998) [3 DVD]

Posted By: Lebedev30
SD / DVD IMDb
Ijigen no Sekai El-Hazard (1998) [3 DVD]

Ijigen no Sekai El-Hazard (1998) [3 DVD]
DVD9 | ISO | NTSC 4:3 | 19.3 Gb
Audio: Japanese AC-3 48000 @ 448 Kbps
Subtitles: none
Genre: action, comedy, ecchi, fantasy, romance


Description:
Now that Miz is Mrs. Fujisawa, she's ordered a girl fresh from Priestess School to take her place as Priestess of Water. During the Coronation of the New Priestess of Water, Qawuul Towles (who, of course, has a crush on Makoto - what a surprise!), Makoto and friends are transported to an alternate world by a mysterious entity named Arjah, who claims to be the ruler of the universe. Makoto, Nanami and Qawuul find themselves in the Kingdom of Creteria, where Qawuul and Nanami are mistaken for ancient sky goddesses, while Jinnai, Katsuo, and Shayla-Shayla come upon the alternate world's version of the Bugrom, and Mr. Fujisawa, Miz and Afura Mann have their heads literally in the clouds.

Contents:
TV Series, 12 episodes
Year: 08.01.1998 till 26.03.1998




Special features -> See the menu's screenshot


Ijigen no Sekai El-Hazard (1998) [3 DVD]


Ijigen no Sekai El-Hazard 01 DVD
DVD9 | ISO | NTSC 4:3 | 6.6 Gb
Audio: Japanese AC-3 48000 @ 448 Kbps



Format : MPEG-PS
File size : 1 024 MiB
Duration : 15 min 13 s
Overall bit rate mode : Variable
Overall bit rate : 9 402 kb/s

Video
ID : 224 (0xE0)
Format : MPEG Video
Format version : Version 2
Format profile : Main@Main
Format settings : CustomMatrix / BVOP
Format settings, BVOP : Yes
Format settings, Matrix : Custom
Format settings, GOP : M=3, N=15
Format settings, picture structure : Frame
Duration : 15 min 13 s
Bit rate mode : Variable
Bit rate : 8 767 kb/s
Maximum bit rate : 9 800 kb/s
Width : 720 pixels
Height : 480 pixels
Display aspect ratio : 4:3
Frame rate : 29.970 (30000/1001) FPS
Standard : NTSC
Color space : YUV
Chroma subsampling : 4:2:0
Bit depth : 8 bits
Scan type : Interlaced
Scan order : Top Field First
Compression mode : Lossy
Bits/(Pixel*Frame) : 0.846
Time code of first frame : 01:15:42:15
Time code source : Group of pictures header
Stream size : 954 MiB (93%)

Audio
ID : 189 (0xBD)-128 (0x80)
Format : AC-3
Format/Info : Audio Coding 3
Muxing mode : DVD-Video
Duration : 15 min 13 s
Bit rate mode : Constant
Bit rate : 448 kb/s
Channel(s) : 2 channels
Channel positions : Front: L R
Sampling rate : 48.0 kHz
Frame rate : 31.250 FPS (1536 SPF)
Bit depth : 16 bits
Compression mode : Lossy
Delay relative to video : -222 ms
Stream size : 48.8 MiB (5%)
Service kind : Complete Main


Ijigen no Sekai El-Hazard (1998) [3 DVD]


Ijigen no Sekai El-Hazard 02 DVD
DVD9 | ISO | NTSC 4:3 | 6.6 Gb
Audio: Japanese AC-3 48000 @ 448 Kbps



Format : MPEG-PS
File size : 1 024 MiB
Duration : 15 min 13 s
Overall bit rate mode : Variable
Overall bit rate : 9 406 kb/s

Video
ID : 224 (0xE0)
Format : MPEG Video
Format version : Version 2
Format profile : Main@Main
Format settings : CustomMatrix / BVOP
Format settings, BVOP : Yes
Format settings, Matrix : Custom
Format settings, GOP : M=3, N=15
Format settings, picture structure : Frame
Duration : 15 min 13 s
Bit rate mode : Variable
Bit rate : 8 770 kb/s
Maximum bit rate : 9 800 kb/s
Width : 720 pixels
Height : 480 pixels
Display aspect ratio : 4:3
Frame rate : 29.970 (30000/1001) FPS
Standard : NTSC
Color space : YUV
Chroma subsampling : 4:2:0
Bit depth : 8 bits
Scan type : Interlaced
Scan order : Top Field First
Compression mode : Lossy
Bits/(Pixel*Frame) : 0.847
Time code of first frame : 01:15:42:18
Time code source : Group of pictures header
Stream size : 955 MiB (93%)

Audio
ID : 189 (0xBD)-128 (0x80)
Format : AC-3
Format/Info : Audio Coding 3
Muxing mode : DVD-Video
Duration : 15 min 13 s
Bit rate mode : Constant
Bit rate : 448 kb/s
Channel(s) : 2 channels
Channel positions : Front: L R
Sampling rate : 48.0 kHz
Frame rate : 31.250 FPS (1536 SPF)
Bit depth : 16 bits
Compression mode : Lossy
Delay relative to video : -258 ms
Stream size : 48.8 MiB (5%)
Service kind : Complete Main


Ijigen no Sekai El-Hazard (1998) [3 DVD]


Ijigen no Sekai El-Hazard 03 DVD
DVD9 | ISO | NTSC 4:3 | 6.1 Gb
Audio: Japanese AC-3 48000 @ 448 Kbps



Format : MPEG-PS
File size : 1 024 MiB
Duration : 20 min 43 s
Overall bit rate mode : Variable
Overall bit rate : 6 906 kb/s

Video
ID : 224 (0xE0)
Format : MPEG Video
Format version : Version 2
Format profile : Main@Main
Format settings : CustomMatrix / BVOP
Format settings, BVOP : Yes
Format settings, Matrix : Custom
Format settings, GOP : Variable
Format settings, picture structure : Frame
Duration : 20 min 43 s
Bit rate mode : Variable
Bit rate : 6 321 kb/s
Maximum bit rate : 9 800 kb/s
Width : 720 pixels
Height : 480 pixels
Display aspect ratio : 4:3
Frame rate : 29.970 (30000/1001) FPS
Standard : NTSC
Color space : YUV
Chroma subsampling : 4:2:0
Bit depth : 8 bits
Scan type : Interlaced
Scan order : Top Field First
Compression mode : Lossy
Bits/(Pixel*Frame) : 0.610
Time code of first frame : 01:21:45:26
Time code source : Group of pictures header
Stream size : 937 MiB (92%)

Audio
ID : 189 (0xBD)-128 (0x80)
Format : AC-3
Format/Info : Audio Coding 3
Muxing mode : DVD-Video
Duration : 20 min 43 s
Bit rate mode : Constant
Bit rate : 448 kb/s
Channel(s) : 2 channels
Channel positions : Front: L R
Sampling rate : 48.0 kHz
Frame rate : 31.250 FPS (1536 SPF)
Bit depth : 16 bits
Compression mode : Lossy
Delay relative to video : -272 ms
Stream size : 66.4 MiB (6%)
Service kind : Complete Main


Screenshots

Ijigen no Sekai El-Hazard (1998) [3 DVD]

Ijigen no Sekai El-Hazard (1998) [3 DVD]

Ijigen no Sekai El-Hazard (1998) [3 DVD]