Tags
Language
Tags
April 2024
Su Mo Tu We Th Fr Sa
31 1 2 3 4 5 6
7 8 9 10 11 12 13
14 15 16 17 18 19 20
21 22 23 24 25 26 27
28 29 30 1 2 3 4

Aa! Megami-sama! (2006)

Posted By: Lebedev30
1080p (FullHD) / BluRay Remux
Aa! Megami-sama! (2006)

Aa! Megami-sama! (2006)
BD-Remux | m2ts | 1920x1080 | H264@~42 Mbps | 24x ~ 24mn | 24x ~7.3 Gb
Japanese PCM@1536 Kbps/Japanese PCM@1536 Kbps | 2 channels/2 channels | Subtitles: none
Genre: angel, contemporary fantasy, deity, fantasy, magic, romance, seinen, sudden girlfriend appearance


Description:
* Based on Fujishima Kousuke long-running manga of the same name, serialised in the Afternoon magazine. Set one year after Aa! Megami-sama!.

The song may say thank heaven for little girls, but whom is college student Morisato Keiichi supposed to thank when three honest to goodness Goddesses move in and take over his life? And should he really be all that grateful?

After all, according to most mythologies, relationships between mortals and immortals usually leads to mortifying complications, so we're already talking about an extremely mixed blessing! And when a fourth Goddess suddenly appears, that blessing quickly becomes a curse. Keiichi's new friends may be trying to help, but sometimes Belldandy, Skuld, Urd, and Peorth seem less concerned with Keiichi's safety than they are with establishing a pecking order and ownership rights!

The delicate celestial balance that exists between human and goddess is thrown into complete and utter chaos.


01. Ah! I Wish…Once More!
02. Ah! The Beleaguered Queen of Vengeance!
03. Ah! I Offer These Feelings on Christmas Eve!
04. Ah! I Want to Fill the World with Happiness!
05. Ah! Well-Matched Vibes of Love!
06. Ah! Is That Jealousy?!
07. Ah! I Shall Grant Your Wish!
08. Ah! I Want to Be of Use to You!
09. Ah! The Goddesses Go Head to Head on a Date!
10. Ah! I Just Can`t Say It!
11. Ah! Grasp Your Dream with Your Own Hands!
12. Ah! A Goddess`s Tears and His Dream!
13. Ah! Let Those Feelings Awaken!
14. Ah! My Darling Cupid!
15. Ah! I`m Half Goddess, Half Demon?!
16. Ah! Shimmer Without Fear of the Darkness!
17. Ah! The Chair of Demonkind Descends!
18. Ah! Do Demons Have Any Dignity?!
19. Ah! The Love of a Goddess Saves!
20. Ah! It Doesn`t Matter Where, So Long As We`re Together!
21. Ah! Would It Be Okay If I Were a Demon?!
22. Ah! The Goddess`s Confession!
S1. Ah! Everyone Has a Destiny!
S2. Ah! The Song of Love That Shakes the Heart!


General
Format : BDAV
Format/Info : Blu-ray Video
File size : 7.26 GiB
Duration : 23 min 56 s
Overall bit rate mode : Variable
Overall bit rate : 43.4 Mb/s
Maximum Overall bit rate : 48.0 Mb/s

Video
ID : 4113 (0x1011)
Menu ID : 1 (0x1)
Format : AVC
Format/Info : Advanced Video Codec
Format profile : High@L4.1
Format settings : CABAC / 4 Ref Frames
Format settings, CABAC : Yes
Format settings, RefFrames : 4 frames
Codec ID : 27
Duration : 23 min 56 s
Bit rate mode : Variable
Bit rate : 39.0 Mb/s
Width : 1 920 pixels
Height : 1 080 pixels
Display aspect ratio : 16:9
Frame rate : 23.976 (24000/1001) FPS
Color space : YUV
Chroma subsampling : 4:2:0
Bit depth : 8 bits
Scan type : Progressive
Bits/(Pixel*Frame) : 0.784
Stream size : 6.46 GiB (89%)

Audio #1
ID : 4352 (0x1100)
Menu ID : 1 (0x1)
Format : PCM
Format settings : Big / Signed
Muxing mode : Blu-ray
Codec ID : 128
Duration : 23 min 56 s
Bit rate mode : Constant
Bit rate : 1 536 kb/s
Channel(s) : 2 channels
Channel positions : Front: L R
Sampling rate : 48.0 kHz
Bit depth : 16 bits
Stream size : 263 MiB (4%)

Audio #2
ID : 4353 (0x1101)
Menu ID : 1 (0x1)
Format : PCM
Format settings : Big / Signed
Muxing mode : Blu-ray
Codec ID : 128
Duration : 23 min 56 s
Bit rate mode : Constant
Bit rate : 1 536 kb/s
Channel(s) : 2 channels
Channel positions : Front: L R
Sampling rate : 48.0 kHz
Bit depth : 16 bits
Stream size : 263 MiB (4%)


Screenshots

Aa! Megami-sama! (2006)

Aa! Megami-sama! (2006)

Aa! Megami-sama! (2006)


My publications | Rss Channel