Tags
Language
Tags

Lupin Sansei: The Last Job (2010)

Posted By: Lebedev30
SD / DVD IMDb
Lupin Sansei: The Last Job (2010)

Lupin Sansei: The Last Job (2010)
DVD9 | ISO | NTSC 4:3 | 6 Gb
Audio: Japanese PCM@1536 Kbps
Subtitles: English
Genre: action, gunfights, martial arts, ninja, seinen, swordplay


Description:
A Japanese cultural artifact has been found in a Nazi Germany facility, and Lupin intends to steal it. Although he gets his hands on the artifact, he is caught by Inspector Zenigata. However, the two are then attacked by the mysterious ninja organisation Morgana. In the ensuing fight, the Morgana takes possession of the artifact and Zenigata is killed.

Contents:
TV Special
Year: 12.02.2010




Special features -> See the menu's screenshot


Lupin Sansei: The Last Job (2010)


Lupin Sansei: The Last Job (2010)
DVD9 | ISO | NTSC 4:3 | 6 Gb
Audio: Japanese PCM@1536 Kbps



Video
Format : MPEG-PS
File size : 5.78 GiB
Duration : 1 h 33 min
Overall bit rate mode : Variable
Overall bit rate : 8 879 kb/s

Video
ID : 224 (0xE0)
Format : MPEG Video
Format version : Version 2
Format profile : Main@Main
Format settings : CustomMatrix / BVOP
Format settings, BVOP : Yes
Format settings, Matrix : Custom
Format settings, GOP : Variable
Format settings, picture structure : Frame
Duration : 1 h 33 min
Bit rate mode : Variable
Bit rate : 7 167 kb/s
Maximum bit rate : 9 800 kb/s
Width : 720 pixels
Height : 480 pixels
Display aspect ratio : 4:3
Frame rate : 29.970 (30000/1001) FPS
Standard : NTSC
Color space : YUV
Chroma subsampling : 4:2:0
Bit depth : 8 bits
Scan type : Interlaced
Scan order : Top Field First
Compression mode : Lossy
Bits/(Pixel*Frame) : 0.692
Time code of first frame : 01:00:00:00
Time code source : Group of pictures header
GOP, Open/Closed : Open
GOP, Open/Closed of first frame : Closed
Stream size : 4.67 GiB (81%)

Audio
ID : 189 (0xBD)-160 (0xA0)
Format : PCM
Format settings : Big / Signed
Muxing mode : DVD-Video
Duration : 1 h 33 min
Bit rate mode : Constant
Bit rate : 1 536 kb/s
Channel(s) : 2 channels
Sampling rate : 48.0 kHz
Bit depth : 16 bits
Stream size : 1.00 GiB (17%)


Screenshots

Lupin Sansei: The Last Job (2010)

Lupin Sansei: The Last Job (2010)

Lupin Sansei: The Last Job (2010)