Tags
Language
Tags
April 2024
Su Mo Tu We Th Fr Sa
31 1 2 3 4 5 6
7 8 9 10 11 12 13
14 15 16 17 18 19 20
21 22 23 24 25 26 27
28 29 30 1 2 3 4

Inuyasha 034-066 BOX 2 (2000-2004)

Posted By: Lebedev30
1080p (FullHD) / BluRay Remux IMDb
Inuyasha 034-066 BOX 2 (2000-2004)

Inuyasha 034-066 BOX 2 (2000-2004)
BD-Remux | mkv | 1920x1080 | H264@~15 Mbps | 33x ~ 25mn | 33x ~3.5 Gb
Spanish DTS@1509 Kbps/Japanese DTS@1509 Kbps/Catalonia DTS@1509 Kbps | 2 channels | Subtitles: Spanish
Genre: action, adventure, comedy, contemporary fantasy, demon, fantasy, love polygon, magic, martial arts, parallel world, romance, shounen, super power, swordplay, time travel, violence


Description:
Kagome leads a fairly normal life, in spite of her weird family. Her house is a thousand-year-old Japanese temple, and her grandfather talks about the history of the house endlessly. Legend has it that the old well on the temple grounds keeps a vicious ancient monster at bay; Kagome never believed those legends, until now. The well opens up and sucked Kagome inside transporting her to an ancient time of enchanted forests and giant demons.

Kagome is soon confronted by her odd resemblance to Kikyou, the girl who controlled the magical Shikon no Tama talisman and imprisoned the legendary half-demon InuYasha. Upon entering this fantasy world, Kagome is attacked by a demon hunting the Shikon no Tama; she unwittingly releases InuYasha from his imprisonment, only to find that he's no hero.


34. Tetsusaiga and Tenseiga
35. The True Owner of the Great Sword
36. Kagome Kidnapped by Koga, the Wolf-Demon
37. The Man Who Fell In Love With Kagome
38. Two Hearts, One Mind
39. Trapped In a Duel To The Death!
40. The Deadly Trap of the Wind Sorceress, Kagura
41. Kagura`s Dance and Kanna`s Mirror
42. The Wind Scar, Defeated
43. Tetsusaiga Breaks
44. Kaijinbo`s Evil Sword
45. Sesshomaru Wields Tokijin
46. Juromaru and Kageromaru
47. Onigumo`s Heart Still Beats Within Naraku
48. Return to the Place Where We First Met
49. Kohaku`s Lost Memory
50. That Unforgettable Face!
51. Inuyasha`s Soul, Devoured
52. A Demon`s True Nature
53. Father`s Old Enemy: Ryukotsusei
54. The Backlash Wave: Tetsusaiga`s Ultimate Technique
55. The Stone Flower and Shippo`s First Love
56. Temptress in the Mist
57. Fateful Night in Togenkyo, Part I
58. Fateful Night in Togenkyo, Part II
59. The Beautiful Sister Apprentices
60. The 50 Year-Old Curse of the Dark Priestess
61. Kikyo and the Dark Priestess
62. Tsubaki`s Unrelenting Evil Spell
63. The Red and White Priestesses
64. Giant Ogre of the Forbidden Tower
65. Farewell Days of My Youth
66. Naraku`s Barrier - Kagura`s Decision


General
Format : Matroska
Format version : Version 4 / Version 2
File size : 3.55 GiB
Duration : 24 min 26 s
Overall bit rate mode : Variable
Overall bit rate : 20.8 Mb/s
Encoded date : UTC 2018-07-02 22:05:08
Writing application : mkvmerge v24.0.0 ('Beyond The Pale') 64-bit
Writing library : libebml v1.3.6 + libmatroska v1.4.9

Video
ID : 1
Format : AVC
Format/Info : Advanced Video Codec
Format profile : High@L4.1
Format settings : CABAC / 4 Ref Frames
Format settings, CABAC : Yes
Format settings, RefFrames : 4 frames
Codec ID : V_MPEG4/ISO/AVC
Duration : 24 min 25 s
Bit rate mode : Variable
Bit rate : 15.8 Mb/s
Maximum bit rate : 20.0 Mb/s
Width : 1 920 pixels
Height : 1 080 pixels
Display aspect ratio : 16:9
Frame rate mode : Constant
Frame rate : 23.976 (24000/1001) FPS
Standard : NTSC
Color space : YUV
Chroma subsampling : 4:2:0
Bit depth : 8 bits
Scan type : Progressive
Bits/(Pixel*Frame) : 0.318
Stream size : 2.70 GiB (76%)
Default : Yes
Forced : No
Color range : Limited
Color primaries : BT.709
Transfer characteristics : BT.709
Matrix coefficients : BT.709

Audio #1
ID : 2
Format : DTS
Format/Info : Digital Theater Systems
Format profile : MA / Core
Codec ID : A_DTS
Duration : 24 min 26 s
Bit rate mode : Variable / Constant
Bit rate : 1 608 kb/s / 1 509 kb/s
Channel(s) : 2 channels
Channel positions : Front: L R
Sampling rate : 48.0 kHz
Frame rate : 93.750 FPS (512 SPF)
Bit depth : 16 bits
Compression mode : Lossless / Lossy
Delay relative to video : 4 ms
Stream size : 281 MiB (8%)
Default : Yes
Forced : No

Audio #2
ID : 3
Format : DTS
Format/Info : Digital Theater Systems
Format profile : MA / Core
Codec ID : A_DTS
Duration : 24 min 26 s
Bit rate mode : Variable / Constant
Bit rate : 1 618 kb/s / 1 509 kb/s
Channel(s) : 2 channels
Channel positions : Front: L R
Sampling rate : 48.0 kHz
Frame rate : 93.750 FPS (512 SPF)
Bit depth : 16 bits
Compression mode : Lossless / Lossy
Delay relative to video : 4 ms
Stream size : 283 MiB (8%)
Default : No
Forced : No

Audio #3
ID : 4
Format : DTS
Format/Info : Digital Theater Systems
Format profile : MA / Core
Codec ID : A_DTS
Duration : 24 min 26 s
Bit rate mode : Variable / Constant
Bit rate : 1 726 kb/s / 1 509 kb/s
Channel(s) : 2 channels
Channel positions : Front: L R
Sampling rate : 48.0 kHz
Frame rate : 93.750 FPS (512 SPF)
Bit depth : 16 bits
Compression mode : Lossless / Lossy
Delay relative to video : 4 ms
Stream size : 302 MiB (8%)
Default : No
Forced : No

Text #1
ID : 5
Format : PGS
Muxing mode : zlib
Codec ID : S_HDMV/PGS
Codec ID/Info : Picture based subtitle format used on BDs/HD-DVDs
Duration : 24 min 23 s
Bit rate : 3 221 b/s
Count of elements : 54
Stream size : 576 KiB (0%)
Default : Yes
Forced : No

Text #2
ID : 6
Format : PGS
Muxing mode : zlib
Codec ID : S_HDMV/PGS
Codec ID/Info : Picture based subtitle format used on BDs/HD-DVDs
Duration : 2 min 12 s
Bit rate : 30.4 kb/s
Count of elements : 46
Stream size : 492 KiB (0%)
Default : No
Forced : No

Text #3
ID : 7
Format : PGS
Muxing mode : zlib
Codec ID : S_HDMV/PGS
Codec ID/Info : Picture based subtitle format used on BDs/HD-DVDs
Duration : 24 min 23 s
Bit rate : 48.0 kb/s
Count of elements : 748
Stream size : 8.38 MiB (0%)
Default : No
Forced : No


Screenshots

Inuyasha 034-066 BOX 2 (2000-2004)

Inuyasha 034-066 BOX 2 (2000-2004)

Inuyasha 034-066 BOX 2 (2000-2004)


My publications | Rss Channel