Tags
Language
Tags

Lupin Sansei: Moeyo Zantetsuken (1994)

Posted By: Lebedev30
1080p (FullHD) / BluRay Remux IMDb
Lupin Sansei: Moeyo Zantetsuken (1994)

Lupin Sansei: Moeyo Zantetsuken (1994)
BD-Remux | m2ts | 1920x1080 | H264@~38 Mbps | 1x ~ 90mn | 1x ~26.1 Gb
日本語 PCM@1536 Kbps | 2 channels | Subtitles: None
Genre: action, comedy, seinen


Description:
The Dragon of Doom has kept its secret inside the sunken Titanic for over eighty years. But when there is a treasure of immeasurable value at stake, some people just cannot let the past lie still.

While taking a breather in Tokyo, Lupin and Jigen are carefully tracked by Hong Kong's nastiest gangster kingpin. And after Goemon's peaceful night at the theatre is turned into a ninja battleground, the guys find themselves thrown into an international race to find the dragon. But a shadow from Goemon's past stirs up his thoughts of destiny. He knows he must protect the Dragon of Doom, even if it means ending the lives of his friends in the process.

From Tokyo to Paris to the deepest fathoms of the Atlantic Ocean, Goemon, Jigen, Fujiko, and Lupin rush for the treasure and dodge the bad guys… Only this time their friends might just be enemies, too.






01. TV Special


General
Format : BDAV
Format/Info : Blu-ray Video
File size : 26.2 GiB
Duration : 1 h 30 min
Overall bit rate mode : Variable
Overall bit rate : 41.6 Mb/s
Maximum Overall bit rate : 48.0 Mb/s

Video
ID : 4113 (0x1011)
Menu ID : 1 (0x1)
Format : AVC
Format/Info : Advanced Video Codec
Format profile : High@L4.1
Format settings : CABAC / 4 Ref Frames
Format settings, CABAC : Yes
Format settings, RefFrames : 4 frames
Codec ID : 27
Duration : 1 h 30 min
Bit rate mode : Variable
Bit rate : 38.4 Mb/s
Width : 1 920 pixels
Height : 1 080 pixels
Display aspect ratio : 16:9
Frame rate : 23.976 (24000/1001) FPS
Color space : YUV
Chroma subsampling : 4:2:0
Bit depth : 8 bits
Scan type : Progressive
Bits/(Pixel*Frame) : 0.772
Stream size : 24.2 GiB (92%)
Color range : Limited
Color primaries : BT.709
Transfer characteristics : BT.709
Matrix coefficients : BT.709

Audio
ID : 4352 (0x1100)
Menu ID : 1 (0x1)
Format : PCM
Format settings : Big / Signed
Muxing mode : Blu-ray
Codec ID : 128
Duration : 1 h 30 min
Bit rate mode : Constant
Bit rate : 1 536 kb/s
Channel(s) : 2 channels
Channel positions : Front: L R
Sampling rate : 48.0 kHz
Bit depth : 16 bits
Stream size : 990 MiB (4%)


Screenshots

Lupin Sansei: Moeyo Zantetsuken (1994)

Lupin Sansei: Moeyo Zantetsuken (1994)

Lupin Sansei: Moeyo Zantetsuken (1994)


My publications | Rss Channel