Tags
Language
Tags

Lupin Sansei: The Last Job (2010)

Posted By:
1080p (FullHD) / BluRay Remux IMDb
Lupin Sansei: The Last Job (2010)

Lupin Sansei: The Last Job (2010)
BD-Remux | m2ts | 1920x1080 | H264@~37 Mbps | 1x ~ 93mn | 1x ~26.5 Gb
日本語 PCM@1536 Kbps | 2 channels | Subtitles: None
Genre: action, gunfights, martial arts, ninja, seinen, swordplay


Description:
A Japanese cultural artifact has been found in a Nazi Germany facility, and Lupin intends to steal it. Although he gets his hands on the artifact, he is caught by Inspector Zenigata. However, the two are then attacked by the mysterious ninja organisation Morgana. In the ensuing fight, the Morgana takes possession of the artifact and Zenigata is killed.






01. TV Special


General
Format : BDAV
Format/Info : Blu-ray Video
File size : 26.5 GiB
Duration : 1 h 33 min
Overall bit rate mode : Variable
Overall bit rate : 40.8 Mb/s
Maximum Overall bit rate : 48.0 Mb/s

Video
ID : 4113 (0x1011)
Menu ID : 1 (0x1)
Format : AVC
Format/Info : Advanced Video Codec
Format profile : High@L4.1
Format settings : CABAC / 4 Ref Frames
Format settings, CABAC : Yes
Format settings, RefFrames : 4 frames
Codec ID : 27
Duration : 1 h 33 min
Bit rate mode : Variable
Bit rate : 37.7 Mb/s
Maximum bit rate : 38.4 Mb/s
Width : 1 920 pixels
Height : 1 080 pixels
Display aspect ratio : 16:9
Frame rate : 29.970 (30000/1001) FPS
Color space : YUV
Chroma subsampling : 4:2:0
Bit depth : 8 bits
Scan type : MBAFF
Scan type, store method : Interleaved fields
Scan order : Top Field First
Bits/(Pixel*Frame) : 0.606
Stream size : 24.5 GiB (92%)
Color range : Limited
Color primaries : BT.709
Transfer characteristics : BT.709
Matrix coefficients : BT.709

Audio
ID : 4352 (0x1100)
Menu ID : 1 (0x1)
Format : PCM
Format settings : Big / Signed
Muxing mode : Blu-ray
Codec ID : 128
Duration : 1 h 33 min
Bit rate mode : Constant
Bit rate : 1 536 kb/s
Channel(s) : 2 channels
Channel positions : Front: L R
Sampling rate : 48.0 kHz
Bit depth : 16 bits
Stream size : 1 022 MiB (4%)


Screenshots

Lupin Sansei: The Last Job (2010)

Lupin Sansei: The Last Job (2010)

Lupin Sansei: The Last Job (2010)


My publications | Rss Channel