Tags
Language
Tags
April 2024
Su Mo Tu We Th Fr Sa
31 1 2 3 4 5 6
7 8 9 10 11 12 13
14 15 16 17 18 19 20
21 22 23 24 25 26 27
28 29 30 1 2 3 4

Akame ga Kill! (2014)

Posted By: Lebedev30
1080p (FullHD) / WEBRip IMDb
Akame ga Kill! (2014)

Akame ga Kill! (2014)
WEBRip | MKV | 1920x1080 | H264@5473 Kbps | 24x ~ 25mn | 24x ~1 Gb
日本語 AAC@128 Kbps | 2 channels | Subtitles: English, Português, Español
Genre: action, fantasy, military, shounen, super power, tragedy, violence


Description:
Tatsumi is a self-acknowledge country bumpkin who is nonetheless a well trained fighter. He and two companions leave their remote village to head to the Imperial City to find a way to relieve their friends and family from ruinous taxation imposed by the authorities. Yet the Imperial City is filled with unimaginable amounts of corruption and evil from supernatural sources. Tatsumi is immediately swindled after reaching the City and nearly loses everything soon after, but finds himself allied with an unlikely group of assassins.






01. Kill the Darkness
02. Kill the Authority
03. Kill Your Cares
04. Kill the Imperial Arm Users
05. Kill the Dream
06. Kill the Absolute Justice
07. Kill the Three -Part One-
08. Kill the Three -Part Two-
09. Kill the Battle Fanatic
10. Kill the Temptation
11. Kill the Mad Scientist
12. Kill the Newcomers
13. Kill the Nuisances
14. Kill the Giant Danger Beast
15. Kill the Religious Organization
16. Kill the Puppets
17. Kill the Curse
18. Kill the Demon
19. Kill the Fate
20. Kill the Carnage
21. Kill the Despair
22. Kill the Little Sister
23. Kill the Emperor
24. Akame ga Kill!


General
Format : Matroska
Format version : Version 4 / Version 2
File size : 950 MiB
Duration : 23 min 42 s
Overall bit rate : 5 600 kb/s
Encoded date : UTC 2019-03-06 14:19:41
Writing application : mkvmerge v26.0.0 ('In The Game') 64-bit
Writing library : libebml v1.3.6 + libmatroska v1.4.9

Video
ID : 1
Format : AVC
Format/Info : Advanced Video Codec
Format profile : High@L4
Format settings : CABAC / 4 Ref Frames
Format settings, CABAC : Yes
Format settings, RefFrames : 4 frames
Codec ID : V_MPEG4/ISO/AVC
Duration : 23 min 41 s
Bit rate : 5 473 kb/s
Width : 1 920 pixels
Height : 1 080 pixels
Display aspect ratio : 16:9
Frame rate mode : Constant
Frame rate : 23.976 (24000/1001) FPS
Color space : YUV
Chroma subsampling : 4:2:0
Bit depth : 8 bits
Scan type : Progressive
Bits/(Pixel*Frame) : 0.110
Stream size : 928 MiB (98%)
Writing library : x264 core 142
Encoding settings : cabac=1 / ref=4 / deblock=1:1:1 / analyse=0x3:0x113 / me=umh / subme=8 / psy=1 / psy_rd=0.40:0.00 / mixed_ref=1 / me_range=16 / chroma_me=1 / trellis=1 / 8x8dct=1 / cqm=0 / deadzone=21,11 / fast_pskip=1 / chroma_qp_offset=-2 / threads=12 / lookahead_threads=2 / sliced_threads=0 / nr=0 / decimate=1 / interlaced=0 / bluray_compat=0 / constrained_intra=0 / bframes=3 / b_pyramid=2 / b_adapt=2 / b_bias=0 / direct=3 / weightb=1 / open_gop=0 / weightp=2 / keyint=48 / keyint_min=24 / scenecut=40 / intra_refresh=0 / rc_lookahead=48 / rc=crf / mbtree=1 / crf=15.0 / qcomp=0.60 / qpmin=0 / qpmax=69 / qpstep=4 / vbv_maxrate=8000 / vbv_bufsize=12000 / crf_max=0.0 / nal_hrd=none / filler=0 / ip_ratio=1.40 / aq=1:0.60
Default : Yes
Forced : No

Audio
ID : 2
Format : AAC
Format/Info : Advanced Audio Codec
Format profile : LC
Codec ID : A_AAC-2
Duration : 23 min 42 s
Bit rate : 128 kb/s
Channel(s) : 2 channels
Channel positions : Front: L R
Sampling rate : 44.1 kHz
Frame rate : 43.066 FPS (1024 SPF)
Compression mode : Lossy
Delay relative to video : -83 ms
Stream size : 21.7 MiB (2%)
Default : Yes
Forced : No

Text #1
ID : 3
Format : ASS
Codec ID : S_TEXT/ASS
Codec ID/Info : Advanced Sub Station Alpha
Duration : 23 min 42 s
Bit rate : 164 b/s
Count of elements : 440
Compression mode : Lossless
Stream size : 28.6 KiB (0%)
Title : English(US)
Language : English
Default : Yes
Forced : No

Text #2
ID : 4
Format : ASS
Codec ID : S_TEXT/ASS
Codec ID/Info : Advanced Sub Station Alpha
Duration : 23 min 29 s
Bit rate : 156 b/s
Count of elements : 406
Compression mode : Lossless
Stream size : 26.9 KiB (0%)
Title : Espanol
Language : Spanish
Default : No
Forced : No

Text #3
ID : 5
Format : ASS
Codec ID : S_TEXT/ASS
Codec ID/Info : Advanced Sub Station Alpha
Duration : 23 min 29 s
Bit rate : 173 b/s
Count of elements : 433
Compression mode : Lossless
Stream size : 29.8 KiB (0%)
Title : Portugues(Brasil)
Language : Portuguese
Default : No
Forced : No


Screenshots

Akame ga Kill! (2014)

Akame ga Kill! (2014)

Akame ga Kill! (2014)


My publications | Rss Channel