Code Geass: Hangyaku no Lelouch R2 (2008)

Posted By: Lebedev30
1080p (FullHD) / WEBRip IMDb
Code Geass: Hangyaku no Lelouch R2 (2008)

Code Geass: Hangyaku no Lelouch R2 (2008)
WEBRip | MKV | 1920x1080 | H264@5642 Kbps | 25x ~ 25mn | 25x ~1 Gb
日本語 AAC@128 Kbps | 2 channels | Subtitles: English, العربية, Español, Português, Italiano, Deutsch, Français, Polski, Nederlands, Suomi, Türkçe, Svenska, Ελληνικά, עברית, ภาษาไทย, 한국어, Dansk, 日本語, 中文
Genre: action, mecha, military, piloted robot, science fiction, tragedy


Description:
It's been one year since the failure of the Black Rebellion and the supposed death of Zero. Britannia has assigned Area 11 a correctional education status, where Elevens are made an example of by brute force, to try to prevent any future uprisings and suppress rebellious thoughts. Unsuspecting high school student Lelouch, oblivious to his rebellious past as Zero, stumbles upon a scheme on his life and the life of a mysterious woman known as C.C., who reveals to him his forgotten purpose and his true self. Destroying his assailants and declaring himself Zero once again, Lelouch sets out to finish what he started.






01. The Day a Demon Awakens
02. Plan for Independent Japan
03. Imprisoned in Campus
04. Counterattack at the Gallows
05. Knights of the Round
06. Surprise Attack over the Pacific
07. The Abandoned Mask
08. One Million Miracles
09. A Bride in the Vermilion Forbidden City
10. When Shen Hu Wins Glory
11. Power of Passion
12. Love Attack!
13. Assassin from the Past
14. Geass Hunt
15. The Cs` World
16. United Federation of Nations Resolution Number One
17. The Taste of Humiliation
18. Final Battle Tokyo II
19. Betrayal
20. Emperor Dismissed
21. The Ragnarok Connection
22. Emperor Lelouch
23. Schneizel`s Guise
24. The Grip of Damocles
25. Re;


General
Format : Matroska
Format version : Version 4 / Version 2
File size : 1 005 MiB
Duration : 24 min 20 s
Overall bit rate : 5 773 kb/s
Encoded date : UTC 2019-01-02 18:04:27
Writing application : mkvmerge v27.0.0 ('Metropolis') 64-bit
Writing library : libebml v1.3.6 + libmatroska v1.4.9

Video
ID : 1
Format : AVC
Format/Info : Advanced Video Codec
Format profile : High@L4
Format settings : CABAC / 4 Ref Frames
Format settings, CABAC : Yes
Format settings, RefFrames : 4 frames
Codec ID : V_MPEG4/ISO/AVC
Duration : 24 min 19 s
Bit rate : 5 642 kb/s
Width : 1 920 pixels
Height : 1 080 pixels
Display aspect ratio : 16:9
Frame rate mode : Constant
Frame rate : 23.976 (24000/1001) FPS
Color space : YUV
Chroma subsampling : 4:2:0
Bit depth : 8 bits
Scan type : Progressive
Bits/(Pixel*Frame) : 0.113
Stream size : 981 MiB (98%)
Writing library : x264 core 142
Encoding settings : cabac=1 / ref=4 / deblock=1:1:1 / analyse=0x3:0x113 / me=umh / subme=8 / psy=1 / psy_rd=0.40:0.00 / mixed_ref=1 / me_range=16 / chroma_me=1 / trellis=1 / 8x8dct=1 / cqm=0 / deadzone=21,11 / fast_pskip=1 / chroma_qp_offset=-2 / threads=12 / lookahead_threads=2 / sliced_threads=0 / nr=0 / decimate=1 / interlaced=0 / bluray_compat=0 / constrained_intra=0 / bframes=3 / b_pyramid=2 / b_adapt=2 / b_bias=0 / direct=3 / weightb=1 / open_gop=0 / weightp=2 / keyint=48 / keyint_min=24 / scenecut=40 / intra_refresh=0 / rc_lookahead=48 / rc=crf / mbtree=1 / crf=15.0 / qcomp=0.60 / qpmin=0 / qpmax=69 / qpstep=4 / vbv_maxrate=8000 / vbv_bufsize=12000 / crf_max=0.0 / nal_hrd=none / filler=0 / ip_ratio=1.40 / aq=1:0.60
Language : Japanese
Default : Yes
Forced : No

Audio
ID : 2
Format : AAC
Format/Info : Advanced Audio Codec
Format profile : LC
Codec ID : A_AAC-2
Duration : 24 min 19 s
Bit rate : 128 kb/s
Channel(s) : 2 channels
Channel positions : Front: L R
Sampling rate : 44.1 kHz
Frame rate : 43.066 FPS (1024 SPF)
Compression mode : Lossy
Delay relative to video : -83 ms
Stream size : 22.3 MiB (2%)
Language : Japanese
Default : Yes
Forced : No

Text #1
ID : 3
Format : ASS
Codec ID : S_TEXT/ASS
Codec ID/Info : Advanced Sub Station Alpha
Duration : 24 min 7 s
Bit rate : 138 b/s
Count of elements : 382
Compression mode : Lossless
Stream size : 24.5 KiB (0%)
Title : English(US)
Language : English
Default : Yes
Forced : No

Text #2
ID : 4
Format : ASS
Codec ID : S_TEXT/ASS
Codec ID/Info : Advanced Sub Station Alpha
Duration : 23 min 53 s
Bit rate : 112 b/s
Count of elements : 358
Compression mode : Lossless
Stream size : 19.6 KiB (0%)
Language : English
Default : No
Forced : No

Text #3
ID : 5
Format : ASS
Codec ID : S_TEXT/ASS
Codec ID/Info : Advanced Sub Station Alpha
Duration : 23 min 57 s
Bit rate : 135 b/s
Count of elements : 368
Compression mode : Lossless
Stream size : 23.8 KiB (0%)
Language : Arabic
Default : No
Forced : No

Text #4
ID : 6
Format : ASS
Codec ID : S_TEXT/ASS
Codec ID/Info : Advanced Sub Station Alpha
Duration : 23 min 54 s
Bit rate : 115 b/s
Count of elements : 367
Compression mode : Lossless
Stream size : 20.2 KiB (0%)
Language : Spanish
Default : No
Forced : No

Text #5
ID : 7
Format : ASS
Codec ID : S_TEXT/ASS
Codec ID/Info : Advanced Sub Station Alpha
Duration : 23 min 53 s
Bit rate : 115 b/s
Count of elements : 366
Compression mode : Lossless
Stream size : 20.2 KiB (0%)
Language : Spanish
Default : No
Forced : No

Text #6
ID : 8
Format : ASS
Codec ID : S_TEXT/ASS
Codec ID/Info : Advanced Sub Station Alpha
Duration : 23 min 57 s
Bit rate : 116 b/s
Count of elements : 367
Compression mode : Lossless
Stream size : 20.4 KiB (0%)
Language : Portuguese
Default : No
Forced : No

Text #7
ID : 9
Format : ASS
Codec ID : S_TEXT/ASS
Codec ID/Info : Advanced Sub Station Alpha
Duration : 23 min 53 s
Bit rate : 113 b/s
Count of elements : 366
Compression mode : Lossless
Stream size : 19.8 KiB (0%)
Language : Portuguese
Default : No
Forced : No

Text #8
ID : 10
Format : ASS
Codec ID : S_TEXT/ASS
Codec ID/Info : Advanced Sub Station Alpha
Duration : 23 min 57 s
Bit rate : 119 b/s
Count of elements : 367
Compression mode : Lossless
Stream size : 21.0 KiB (0%)
Language : German
Default : No
Forced : No

Text #9
ID : 11
Format : ASS
Codec ID : S_TEXT/ASS
Codec ID/Info : Advanced Sub Station Alpha
Duration : 23 min 53 s
Bit rate : 121 b/s
Count of elements : 367
Compression mode : Lossless
Stream size : 21.2 KiB (0%)
Language : French
Default : No
Forced : No

Text #10
ID : 12
Format : ASS
Codec ID : S_TEXT/ASS
Codec ID/Info : Advanced Sub Station Alpha
Duration : 24 min 5 s
Bit rate : 118 b/s
Count of elements : 301
Compression mode : Lossless
Stream size : 20.9 KiB (0%)
Language : Italian
Default : No
Forced : No

Text #11
ID : 13
Format : ASS
Codec ID : S_TEXT/ASS
Codec ID/Info : Advanced Sub Station Alpha
Duration : 23 min 57 s
Bit rate : 104 b/s
Count of elements : 337
Compression mode : Lossless
Stream size : 18.4 KiB (0%)
Language : Polish
Default : No
Forced : No

Text #12
ID : 14
Format : ASS
Codec ID : S_TEXT/ASS
Codec ID/Info : Advanced Sub Station Alpha
Duration : 23 min 53 s
Bit rate : 99 b/s
Count of elements : 366
Compression mode : Lossless
Stream size : 17.5 KiB (0%)
Language : Dutch
Default : No
Forced : No

Text #13
ID : 15
Format : ASS
Codec ID : S_TEXT/ASS
Codec ID/Info : Advanced Sub Station Alpha
Duration : 23 min 57 s
Bit rate : 114 b/s
Count of elements : 367
Compression mode : Lossless
Stream size : 20.0 KiB (0%)
Language : Norwegian Bokmal
Default : No
Forced : No

Text #14
ID : 16
Format : ASS
Codec ID : S_TEXT/ASS
Codec ID/Info : Advanced Sub Station Alpha
Duration : 23 min 57 s
Bit rate : 119 b/s
Count of elements : 368
Compression mode : Lossless
Stream size : 20.9 KiB (0%)
Language : Finnish
Default : No
Forced : No

Text #15
ID : 17
Format : ASS
Codec ID : S_TEXT/ASS
Codec ID/Info : Advanced Sub Station Alpha
Duration : 23 min 57 s
Bit rate : 116 b/s
Count of elements : 368
Compression mode : Lossless
Stream size : 20.4 KiB (0%)
Language : Turkish
Default : No
Forced : No

Text #16
ID : 18
Format : ASS
Codec ID : S_TEXT/ASS
Codec ID/Info : Advanced Sub Station Alpha
Duration : 23 min 53 s
Bit rate : 117 b/s
Count of elements : 367
Compression mode : Lossless
Stream size : 20.6 KiB (0%)
Language : Swedish
Default : No
Forced : No

Text #17
ID : 19
Format : ASS
Codec ID : S_TEXT/ASS
Codec ID/Info : Advanced Sub Station Alpha
Duration : 23 min 57 s
Bit rate : 162 b/s
Count of elements : 368
Compression mode : Lossless
Stream size : 28.5 KiB (0%)
Language : Greek
Default : No
Forced : No

Text #18
ID : 20
Format : ASS
Codec ID : S_TEXT/ASS
Codec ID/Info : Advanced Sub Station Alpha
Duration : 23 min 57 s
Bit rate : 129 b/s
Count of elements : 368
Compression mode : Lossless
Stream size : 22.7 KiB (0%)
Language : Hebrew
Default : No
Forced : No

Text #19
ID : 21
Format : ASS
Codec ID : S_TEXT/ASS
Codec ID/Info : Advanced Sub Station Alpha
Duration : 23 min 57 s
Bit rate : 110 b/s
Count of elements : 368
Compression mode : Lossless
Stream size : 19.3 KiB (0%)
Language : rom
Default : No
Forced : No

Text #20
ID : 22
Format : ASS
Codec ID : S_TEXT/ASS
Codec ID/Info : Advanced Sub Station Alpha
Duration : 23 min 57 s
Bit rate : 193 b/s
Count of elements : 368
Compression mode : Lossless
Stream size : 34.0 KiB (0%)
Language : Thai
Default : No
Forced : No

Text #21
ID : 23
Format : ASS
Codec ID : S_TEXT/ASS
Codec ID/Info : Advanced Sub Station Alpha
Duration : 24 min 6 s
Bit rate : 107 b/s
Count of elements : 371
Compression mode : Lossless
Stream size : 19.0 KiB (0%)
Language : Korean
Default : No
Forced : No

Text #22
ID : 24
Format : ASS
Codec ID : S_TEXT/ASS
Codec ID/Info : Advanced Sub Station Alpha
Duration : 23 min 57 s
Bit rate : 115 b/s
Count of elements : 367
Compression mode : Lossless
Stream size : 20.2 KiB (0%)
Language : Danish
Default : No
Forced : No

Text #23
ID : 25
Format : ASS
Codec ID : S_TEXT/ASS
Codec ID/Info : Advanced Sub Station Alpha
Duration : 23 min 33 s
Bit rate : 148 b/s
Count of elements : 430
Compression mode : Lossless
Stream size : 25.7 KiB (0%)
Language : Japanese
Default : No
Forced : No

Text #24
ID : 26
Format : ASS
Codec ID : S_TEXT/ASS
Codec ID/Info : Advanced Sub Station Alpha
Duration : 23 min 57 s
Bit rate : 100 b/s
Count of elements : 374
Compression mode : Lossless
Stream size : 17.7 KiB (0%)
Language : Chinese
Default : No
Forced : No

Text #25
ID : 27
Format : ASS
Codec ID : S_TEXT/ASS
Codec ID/Info : Advanced Sub Station Alpha
Duration : 23 min 57 s
Bit rate : 101 b/s
Count of elements : 374
Compression mode : Lossless
Stream size : 17.9 KiB (0%)
Language : Chinese
Default : No
Forced : No


Screenshots

Code Geass: Hangyaku no Lelouch R2 (2008)

Code Geass: Hangyaku no Lelouch R2 (2008)

Code Geass: Hangyaku no Lelouch R2 (2008)


My publications | Rss Channel