Tags
Language
Tags
February 2024
Su Mo Tu We Th Fr Sa
28 29 30 31 1 2 3
4 5 6 7 8 9 10
11 12 13 14 15 16 17
18 19 20 21 22 23 24
25 26 27 28 29 1 2
Attention❗ To save your time, in order to download anything on this site, you must be registered 👉 HERE. If you do not have a registration yet, it is better to do it right away. ✌

( • )( • ) ( ͡⚆ ͜ʖ ͡⚆ ) (‿ˠ‿)
SpicyMags.xyz

Final Fantasy XV: Episode Ardyn - Prologue (2019)

Posted By: Lebedev30
1080p (FullHD) / WEBRip IMDb
Final Fantasy XV: Episode Ardyn - Prologue (2019)

Final Fantasy XV: Episode Ardyn - Prologue (2019)
WEBRip | MKV | 1920x1080 | H264@4003 Kbps | 1x ~ 13mn | 1x ~391 Mb
日本語 AAC@128 Kbps | 2 channels | Subtitles: English, Español, Português, Русский, Italiano, Français, Deutsch


Description:
Final Fantasy XV: Episode Ardyn depicts the story of Ardyn Izunia, the main nemesis in FINAL FANTASY XV. The story of suffering, death, and resurrection leading up to the main story in FFXV. This animation reveals the story two millennia ago…






01. Episode 1


General
Format : Matroska
Format version : Version 4 / Version 2
File size : 391 MiB
Duration : 13 min 13 s
Overall bit rate : 4 134 kb/s
Encoded date : UTC 2019-02-17 03:34:54
Writing application : mkvmerge v26.0.0 ('In The Game') 64-bit
Writing library : libebml v1.3.6 + libmatroska v1.4.9

Video
ID : 1
Format : AVC
Format/Info : Advanced Video Codec
Format profile : High@L4
Format settings : CABAC / 4 Ref Frames
Format settings, CABAC : Yes
Format settings, RefFrames : 4 frames
Codec ID : V_MPEG4/ISO/AVC
Duration : 13 min 13 s
Bit rate : 4 003 kb/s
Width : 1 920 pixels
Height : 1 080 pixels
Display aspect ratio : 16:9
Frame rate mode : Constant
Frame rate : 23.976 (24000/1001) FPS
Color space : YUV
Chroma subsampling : 4:2:0
Bit depth : 8 bits
Scan type : Progressive
Bits/(Pixel*Frame) : 0.081
Stream size : 379 MiB (97%)
Writing library : x264 core 142
Encoding settings : cabac=1 / ref=4 / deblock=1:1:1 / analyse=0x3:0x113 / me=umh / subme=8 / psy=1 / psy_rd=0.40:0.00 / mixed_ref=1 / me_range=16 / chroma_me=1 / trellis=1 / 8x8dct=1 / cqm=0 / deadzone=21,11 / fast_pskip=1 / chroma_qp_offset=-2 / threads=12 / lookahead_threads=2 / sliced_threads=0 / nr=0 / decimate=1 / interlaced=0 / bluray_compat=0 / constrained_intra=0 / bframes=3 / b_pyramid=2 / b_adapt=2 / b_bias=0 / direct=3 / weightb=1 / open_gop=0 / weightp=2 / keyint=9999999 / keyint_min=5000000 / scenecut=0 / intra_refresh=0 / rc_lookahead=50 / rc=crf / mbtree=1 / crf=15.0 / qcomp=0.60 / qpmin=0 / qpmax=69 / qpstep=4 / vbv_maxrate=8000 / vbv_bufsize=12000 / crf_max=0.0 / nal_hrd=none / filler=0 / ip_ratio=1.40 / aq=1:0.60
Default : Yes
Forced : No

Audio
ID : 2
Format : AAC
Format/Info : Advanced Audio Codec
Format profile : LC
Codec ID : A_AAC-2
Duration : 13 min 13 s
Bit rate : 128 kb/s
Channel(s) : 2 channels
Channel positions : Front: L R
Sampling rate : 44.1 kHz
Frame rate : 43.066 FPS (1024 SPF)
Compression mode : Lossy
Delay relative to video : -83 ms
Stream size : 12.1 MiB (3%)
Default : Yes
Forced : No

Text #1
ID : 3
Format : ASS
Codec ID : S_TEXT/ASS
Codec ID/Info : Advanced Sub Station Alpha
Duration : 12 min 3 s
Bit rate : 89 b/s
Count of elements : 121
Compression mode : Lossless
Stream size : 7.89 KiB (0%)
Title : English(US)
Language : English
Default : Yes
Forced : No

Text #2
ID : 4
Format : ASS
Codec ID : S_TEXT/ASS
Codec ID/Info : Advanced Sub Station Alpha
Duration : 12 min 0 s
Bit rate : 101 b/s
Count of elements : 133
Compression mode : Lossless
Stream size : 8.91 KiB (0%)
Title : Francais(France)
Language : French
Default : No
Forced : No

Text #3
ID : 5
Format : ASS
Codec ID : S_TEXT/ASS
Codec ID/Info : Advanced Sub Station Alpha
Duration : 12 min 1 s
Bit rate : 96 b/s
Count of elements : 128
Compression mode : Lossless
Stream size : 8.49 KiB (0%)
Title : Deutsch
Language : German
Default : No
Forced : No

Text #4
ID : 6
Format : ASS
Codec ID : S_TEXT/ASS
Codec ID/Info : Advanced Sub Station Alpha
Duration : 12 min 0 s
Bit rate : 84 b/s
Count of elements : 131
Compression mode : Lossless
Stream size : 7.40 KiB (0%)
Title : Italiano
Language : Italian
Default : No
Forced : No

Text #5
ID : 7
Format : ASS
Codec ID : S_TEXT/ASS
Codec ID/Info : Advanced Sub Station Alpha
Duration : 12 min 0 s
Bit rate : 96 b/s
Count of elements : 141
Compression mode : Lossless
Stream size : 8.46 KiB (0%)
Title : Espanol(Espana)
Language : Spanish
Default : No
Forced : No

Text #6
ID : 8
Format : ASS
Codec ID : S_TEXT/ASS
Codec ID/Info : Advanced Sub Station Alpha
Duration : 12 min 0 s
Bit rate : 95 b/s
Count of elements : 141
Compression mode : Lossless
Stream size : 8.45 KiB (0%)
Title : Espanol
Language : Spanish
Default : No
Forced : No

Text #7
ID : 9
Format : ASS
Codec ID : S_TEXT/ASS
Codec ID/Info : Advanced Sub Station Alpha
Duration : 12 min 1 s
Bit rate : 89 b/s
Count of elements : 118
Compression mode : Lossless
Stream size : 7.86 KiB (0%)
Title : Portugues(Brasil)
Language : Portuguese
Default : No
Forced : No

Text #8
ID : 10
Format : ASS
Codec ID : S_TEXT/ASS
Codec ID/Info : Advanced Sub Station Alpha
Duration : 12 min 0 s
Bit rate : 142 b/s
Count of elements : 138
Compression mode : Lossless
Stream size : 12.6 KiB (0%)
Title : Russian
Language : Russian
Default : No
Forced : No


Screenshots

Final Fantasy XV: Episode Ardyn - Prologue (2019)

Final Fantasy XV: Episode Ardyn - Prologue (2019)

Final Fantasy XV: Episode Ardyn - Prologue (2019)


My publications | Rss Channel