Godzilla (2017-2018)

Posted By: Lebedev30
1080p (FullHD) / WEBRip
Godzilla (2017-2018)

Godzilla (2017-2018)
WEBRip | MKV | 1920x1080 | H264@4386 Kbps | 1x ~ 88mn | 1x ~3 Gb
日本語 AC-3@384 Kbps/日本語 AC-3@128 Kbps | 6 channels/2 channels | Subtitles: English, العربية, Español, Português, Italiano, Deutsch, Français, 한국어, 日本語, 中文
Genre: alien, movie, science fiction


Description:
20,000 years in the future on Earth, Godzilla is at the top of the ecosystem, and humans fight to take back the planet.

On Earth, kaijuu suddenly appear, and the ultimate being of Godzilla rises to exterminate them. After half a century of war between Godzilla and the kaijuu, humanity devises a plan to escape the planet. A group of humans chosen by AI board a spaceship called Aratram to travel 11.9 light years to immigrate to a new planet, Tau Ceti e, which rotates around the star Tau Ceti in the constellation Cetus. After traveling for 20 years, the ship barely makes it to the new planet, only to find that it can't support human life.

The protagonist is Haleo, who saw Godzilla kill his parents before his eyes when he was four years old. During the 20-year voyage, he has thought only of going back to Earth and killing Godzilla to avenge his parents. He joins a team that will conduct a dangerous trip through hyperspace to return to Earth. However, when they arrive, they find that 20,000 years have passed on Earth, and the world they once knew has completely changed.




01. Planet of the Monsters


General
Format : Matroska
Format version : Version 4 / Version 2
File size : 3.04 GiB
Duration : 1 h 28 min
Overall bit rate : 4 905 kb/s
Encoded date : UTC 2019-01-03 09:10:05
Writing application : mkvmerge v27.0.0 ('Metropolis') 64-bit
Writing library : libebml v1.3.6 + libmatroska v1.4.9

Video
ID : 1
Format : HEVC
Format/Info : High Efficiency Video Coding
Format profile : Main 10@L4@Main
Codec ID : V_MPEGH/ISO/HEVC
Duration : 1 h 28 min
Bit rate : 4 386 kb/s
Width : 1 920 pixels
Height : 1 080 pixels
Display aspect ratio : 16:9
Frame rate mode : Constant
Frame rate : 24.000 FPS
Color space : YUV
Chroma subsampling : 4:2:0
Bit depth : 10 bits
Bits/(Pixel*Frame) : 0.088
Stream size : 2.71 GiB (89%)
Language : Japanese
Default : Yes
Forced : No
Color range : Limited
Color primaries : BT.709
Transfer characteristics : BT.709
Matrix coefficients : BT.709

Audio #1
ID : 2
Format : AC-3
Format/Info : Audio Coding 3
Codec ID : A_AC3
Duration : 1 h 28 min
Bit rate mode : Constant
Bit rate : 384 kb/s
Channel(s) : 6 channels
Channel positions : Front: L C R, Side: L R, LFE
Sampling rate : 48.0 kHz
Frame rate : 31.250 FPS (1536 SPF)
Bit depth : 16 bits
Compression mode : Lossy
Stream size : 243 MiB (8%)
Language : Japanese
Service kind : Complete Main
Default : Yes
Forced : No

Audio #2
ID : 3
Format : E-AC-3
Format/Info : Enhanced Audio Coding 3
Codec ID : A_EAC3
Duration : 1 h 28 min
Bit rate mode : Constant
Bit rate : 128 kb/s
Channel(s) : 2 channels
Channel positions : Front: L R
Sampling rate : 48.0 kHz
Frame rate : 187.500 FPS (256 SPF)
Compression mode : Lossy
Stream size : 81.1 MiB (3%)
Language : Japanese
Service kind : Complete Main
Default : No
Forced : No

Text #1
ID : 4
Format : ASS
Codec ID : S_TEXT/ASS
Codec ID/Info : Advanced Sub Station Alpha
Duration : 1 h 26 min
Bit rate : 106 b/s
Count of elements : 1046
Compression mode : Lossless
Stream size : 67.9 KiB (0%)
Language : English
Default : Yes
Forced : No

Text #2
ID : 5
Format : ASS
Codec ID : S_TEXT/ASS
Codec ID/Info : Advanced Sub Station Alpha
Duration : 1 h 21 min
Bit rate : 141 b/s
Count of elements : 1044
Compression mode : Lossless
Stream size : 84.7 KiB (0%)
Language : Arabic
Default : No
Forced : No

Text #3
ID : 6
Format : ASS
Codec ID : S_TEXT/ASS
Codec ID/Info : Advanced Sub Station Alpha
Duration : 1 h 26 min
Bit rate : 115 b/s
Count of elements : 1118
Compression mode : Lossless
Stream size : 73.7 KiB (0%)
Language : Spanish
Default : No
Forced : No

Text #4
ID : 7
Format : ASS
Codec ID : S_TEXT/ASS
Codec ID/Info : Advanced Sub Station Alpha
Duration : 1 h 26 min
Bit rate : 108 b/s
Count of elements : 1028
Compression mode : Lossless
Stream size : 68.6 KiB (0%)
Language : Spanish
Default : No
Forced : No

Text #5
ID : 8
Format : ASS
Codec ID : S_TEXT/ASS
Codec ID/Info : Advanced Sub Station Alpha
Duration : 1 h 26 min
Bit rate : 108 b/s
Count of elements : 1049
Compression mode : Lossless
Stream size : 69.0 KiB (0%)
Language : Portuguese
Default : No
Forced : No

Text #6
ID : 9
Format : ASS
Codec ID : S_TEXT/ASS
Codec ID/Info : Advanced Sub Station Alpha
Duration : 1 h 26 min
Bit rate : 104 b/s
Count of elements : 1029
Compression mode : Lossless
Stream size : 66.2 KiB (0%)
Language : Portuguese
Default : No
Forced : No

Text #7
ID : 10
Format : ASS
Codec ID : S_TEXT/ASS
Codec ID/Info : Advanced Sub Station Alpha
Duration : 1 h 21 min
Bit rate : 120 b/s
Count of elements : 1049
Compression mode : Lossless
Stream size : 72.1 KiB (0%)
Language : German
Default : No
Forced : No

Text #8
ID : 11
Format : ASS
Codec ID : S_TEXT/ASS
Codec ID/Info : Advanced Sub Station Alpha
Duration : 1 h 27 min
Bit rate : 115 b/s
Count of elements : 1069
Compression mode : Lossless
Stream size : 73.4 KiB (0%)
Language : French
Default : No
Forced : No

Text #9
ID : 12
Format : ASS
Codec ID : S_TEXT/ASS
Codec ID/Info : Advanced Sub Station Alpha
Duration : 1 h 27 min
Bit rate : 105 b/s
Count of elements : 1077
Compression mode : Lossless
Stream size : 67.4 KiB (0%)
Language : Italian
Default : No
Forced : No

Text #10
ID : 13
Format : ASS
Codec ID : S_TEXT/ASS
Codec ID/Info : Advanced Sub Station Alpha
Duration : 1 h 26 min
Bit rate : 93 b/s
Count of elements : 1046
Compression mode : Lossless
Stream size : 59.6 KiB (0%)
Language : Polish
Default : No
Forced : No

Text #11
ID : 14
Format : ASS
Codec ID : S_TEXT/ASS
Codec ID/Info : Advanced Sub Station Alpha
Duration : 1 h 26 min
Bit rate : 96 b/s
Count of elements : 973
Compression mode : Lossless
Stream size : 61.2 KiB (0%)
Language : Dutch
Default : No
Forced : No

Text #12
ID : 15
Format : ASS
Codec ID : S_TEXT/ASS
Codec ID/Info : Advanced Sub Station Alpha
Duration : 1 h 26 min
Bit rate : 103 b/s
Count of elements : 1002
Compression mode : Lossless
Stream size : 65.6 KiB (0%)
Language : Norwegian Bokmal
Default : No
Forced : No

Text #13
ID : 16
Format : ASS
Codec ID : S_TEXT/ASS
Codec ID/Info : Advanced Sub Station Alpha
Duration : 1 h 21 min
Bit rate : 106 b/s
Count of elements : 905
Compression mode : Lossless
Stream size : 63.4 KiB (0%)
Language : Finnish
Default : No
Forced : No

Text #14
ID : 17
Format : ASS
Codec ID : S_TEXT/ASS
Codec ID/Info : Advanced Sub Station Alpha
Duration : 1 h 27 min
Bit rate : 114 b/s
Count of elements : 1103
Compression mode : Lossless
Stream size : 73.0 KiB (0%)
Language : Turkish
Default : No
Forced : No

Text #15
ID : 18
Format : ASS
Codec ID : S_TEXT/ASS
Codec ID/Info : Advanced Sub Station Alpha
Duration : 1 h 26 min
Bit rate : 98 b/s
Count of elements : 880
Compression mode : Lossless
Stream size : 62.3 KiB (0%)
Language : Swedish
Default : No
Forced : No

Text #16
ID : 19
Format : ASS
Codec ID : S_TEXT/ASS
Codec ID/Info : Advanced Sub Station Alpha
Duration : 1 h 26 min
Bit rate : 160 b/s
Count of elements : 1066
Compression mode : Lossless
Stream size : 102 KiB (0%)
Language : Greek
Default : No
Forced : No

Text #17
ID : 20
Format : ASS
Codec ID : S_TEXT/ASS
Codec ID/Info : Advanced Sub Station Alpha
Duration : 1 h 27 min
Bit rate : 130 b/s
Count of elements : 1052
Compression mode : Lossless
Stream size : 83.3 KiB (0%)
Language : Hebrew
Default : No
Forced : No

Text #18
ID : 21
Format : ASS
Codec ID : S_TEXT/ASS
Codec ID/Info : Advanced Sub Station Alpha
Duration : 1 h 27 min
Bit rate : 105 b/s
Count of elements : 980
Compression mode : Lossless
Stream size : 67.2 KiB (0%)
Language : rom
Default : No
Forced : No

Text #19
ID : 22
Format : ASS
Codec ID : S_TEXT/ASS
Codec ID/Info : Advanced Sub Station Alpha
Duration : 1 h 26 min
Bit rate : 202 b/s
Count of elements : 1065
Compression mode : Lossless
Stream size : 129 KiB (0%)
Language : Thai
Default : No
Forced : No

Text #20
ID : 23
Format : ASS
Codec ID : S_TEXT/ASS
Codec ID/Info : Advanced Sub Station Alpha
Duration : 1 h 26 min
Bit rate : 108 b/s
Count of elements : 1063
Compression mode : Lossless
Stream size : 69.1 KiB (0%)
Language : Korean
Default : No
Forced : No

Text #21
ID : 24
Format : ASS
Codec ID : S_TEXT/ASS
Codec ID/Info : Advanced Sub Station Alpha
Duration : 1 h 26 min
Bit rate : 99 b/s
Count of elements : 994
Compression mode : Lossless
Stream size : 63.5 KiB (0%)
Language : Danish
Default : No
Forced : No

Text #22
ID : 25
Format : ASS
Codec ID : S_TEXT/ASS
Codec ID/Info : Advanced Sub Station Alpha
Duration : 1 h 26 min
Bit rate : 148 b/s
Count of elements : 1483
Compression mode : Lossless
Stream size : 94.5 KiB (0%)
Language : Japanese
Default : No
Forced : No

Text #23
ID : 26
Format : ASS
Codec ID : S_TEXT/ASS
Codec ID/Info : Advanced Sub Station Alpha
Duration : 1 h 27 min
Bit rate : 91 b/s
Count of elements : 1070
Compression mode : Lossless
Stream size : 58.5 KiB (0%)
Language : Chinese
Default : No
Forced : No

Text #24
ID : 27
Format : ASS
Codec ID : S_TEXT/ASS
Codec ID/Info : Advanced Sub Station Alpha
Duration : 1 h 26 min
Bit rate : 96 b/s
Count of elements : 1049
Compression mode : Lossless
Stream size : 61.6 KiB (0%)
Language : Chinese
Default : No
Forced : No

Text #25
ID : 28
Format : ASS
Codec ID : S_TEXT/ASS
Codec ID/Info : Advanced Sub Station Alpha
Duration : 1 h 26 min
Bit rate : 164 b/s
Count of elements : 1044
Compression mode : Lossless
Stream size : 104 KiB (0%)
Language : Bulgarian
Default : No
Forced : No


Screenshots

Godzilla (2017-2018)

Godzilla (2017-2018)

Godzilla (2017-2018)


My publications | Rss Channel