Tags
Language
Tags

Little Witch Academia (2017)

Posted By: Lebedev30
1080p (FullHD) / WEBRip IMDb
Little Witch Academia (2017)

Little Witch Academia (2017)
WEBRip | MKV | 1920x1080 | H264@5360 Kbps | 25x ~ 25mn | 25x ~600 Mb
日本語 E-AC-3@128 Kbps | 2 channels | Subtitles: العربية, English, Español, Português, Italiano, Deutsch, Français, 中文, 日本語, 한국어
Genre: adventure, fantasy, magic


Description:
In a time when magic is on the decline amid society, Atsuko Kagari is a cheerful girl who enters Luna Nova Academy in order to accomplish her dream of becoming a witch like her idol, Shiny Chariot. Shiny is a famous witch who disappeared from public view many years ago. On her way to school, Kagari meets the kind Lotte Yanson and the mischevious Sucy Manbavaran and the three become friends as they share a bedroom in campus. At the academy, Atsuko soon discovers she is in serious disadvantage compared to the other girls since she doesn't come from a magical family and is required to learn the magical curriculum from scratch. Having found an item that once belonged to Chariot, Atsuko must discover how to activate and properly use the mysterious Shiny Rod as she hopes it might lead to finding out what has truly happened to her vanished idol.






01. A New Beginning
02. Papiliodya
03. Don`t Stop Me Now
04. Nightfall
05. Luna Nova and the White Dragon
06. The Fountain of Polaris
07. Orange Submariner
08. Sleeping Sucy
09. Brightonberry`s Undead Travel Log
10. Bee Commotion
11. Blue Moon
12. What You Will
13. Samhain Magic
14. New Age Magic
15. Chariot of Fire
16. The Trial of Pohjola
17. Amanda O`Neill and the Holy Grail
18. Sky War Stanship
19. Cavendish
20. Intellect and Sensitivity
21. Wagandea
22. Chariot and Croix
23. Yesterday
24. The Road to Arcturus
25. Tree of Wishes


General
Format : Matroska
Format version : Version 4 / Version 2
File size : 956 MiB
Duration : 25 min 9 s
Overall bit rate mode : Variable
Overall bit rate : 5 312 kb/s
Encoded date : UTC 2019-10-04 10:10:40
Writing application : mkvmerge v34.0.0 ('Sight and Seen') 64-bit
Writing library : libebml v1.3.7 + libmatroska v1.5.0

Video
ID : 1
Format : AVC
Format/Info : Advanced Video Codec
Format profile : Main@L4
Format settings : CABAC / 3 Ref Frames
Format settings, CABAC : Yes
Format settings, RefFrames : 3 frames
Codec ID : V_MPEG4/ISO/AVC
Duration : 25 min 9 s
Bit rate mode : Variable
Bit rate : 5 360 kb/s
Maximum bit rate : 8 040 kb/s
Width : 1 920 pixels
Height : 1 080 pixels
Display aspect ratio : 16:9
Frame rate mode : Constant
Frame rate : 23.976 (24000/1001) FPS
Color space : YUV
Chroma subsampling : 4:2:0
Bit depth : 8 bits
Scan type : Progressive
Bits/(Pixel*Frame) : 0.108
Stream size : 932 MiB (97%)
Writing library : x264 core 118
Encoding settings : cabac=1 / ref=3 / deblock=1:0:0 / analyse=0x1:0x111 / me=umh / subme=10 / psy=1 / psy_rd=1.00:0.00 / mixed_ref=1 / me_range=24 / chroma_me=1 / trellis=2 / 8x8dct=0 / cqm=0 / deadzone=21,11 / fast_pskip=1 / chroma_qp_offset=-2 / threads=8 / sliced_threads=0 / nr=0 / decimate=1 / interlaced=0 / bluray_compat=0 / constrained_intra=0 / bframes=2 / b_pyramid=0 / b_adapt=2 / b_bias=0 / direct=3 / weightb=1 / open_gop=0 / weightp=2 / keyint=48 / keyint_min=25 / scenecut=0 / intra_refresh=0 / rc_lookahead=0 / rc=2pass / mbtree=1 / bitrate=5360 / ratetol=1.0 / qcomp=0.50 / qpmin=6 / qpmax=51 / qpstep=4 / cplxblur=20.0 / qblur=0.5 / vbv_maxrate=8040 / vbv_bufsize=10720 / nal_hrd=vbr / ip_ratio=1.40 / aq=1:1.00
Language : Japanese
Default : Yes
Forced : No

Audio
ID : 2
Format : E-AC-3
Format/Info : Enhanced Audio Coding 3
Codec ID : A_EAC3
Duration : 25 min 9 s
Bit rate mode : Constant
Bit rate : 128 kb/s
Channel(s) : 2 channels
Channel positions : Front: L R
Sampling rate : 48.0 kHz
Frame rate : 187.500 FPS (256 SPF)
Compression mode : Lossy
Stream size : 23.0 MiB (2%)
Language : Japanese
Service kind : Complete Main
Default : Yes
Forced : No

Text #1
ID : 3
Format : ASS
Codec ID : S_TEXT/ASS
Codec ID/Info : Advanced Sub Station Alpha
Duration : 23 min 37 s
Bit rate : 71 b/s
Count of elements : 247
Compression mode : Lossless
Stream size : 12.3 KiB (0%)
Language : English
Default : Yes
Forced : No

Text #2
ID : 4
Format : ASS
Codec ID : S_TEXT/ASS
Codec ID/Info : Advanced Sub Station Alpha
Duration : 23 min 37 s
Bit rate : 100 b/s
Count of elements : 245
Compression mode : Lossless
Stream size : 17.4 KiB (0%)
Language : Arabic
Default : No
Forced : No

Text #3
ID : 5
Format : ASS
Codec ID : S_TEXT/ASS
Codec ID/Info : Advanced Sub Station Alpha
Duration : 23 min 37 s
Bit rate : 72 b/s
Count of elements : 244
Compression mode : Lossless
Stream size : 12.6 KiB (0%)
Language : Spanish
Default : No
Forced : No

Text #4
ID : 6
Format : ASS
Codec ID : S_TEXT/ASS
Codec ID/Info : Advanced Sub Station Alpha
Duration : 23 min 37 s
Bit rate : 71 b/s
Count of elements : 245
Compression mode : Lossless
Stream size : 12.3 KiB (0%)
Language : Spanish
Default : No
Forced : No

Text #5
ID : 7
Format : ASS
Codec ID : S_TEXT/ASS
Codec ID/Info : Advanced Sub Station Alpha
Duration : 23 min 37 s
Bit rate : 69 b/s
Count of elements : 245
Compression mode : Lossless
Stream size : 12.0 KiB (0%)
Language : Portuguese
Default : No
Forced : No

Text #6
ID : 8
Format : ASS
Codec ID : S_TEXT/ASS
Codec ID/Info : Advanced Sub Station Alpha
Duration : 23 min 37 s
Bit rate : 70 b/s
Count of elements : 244
Compression mode : Lossless
Stream size : 12.2 KiB (0%)
Language : Portuguese
Default : No
Forced : No

Text #7
ID : 9
Format : ASS
Codec ID : S_TEXT/ASS
Codec ID/Info : Advanced Sub Station Alpha
Duration : 23 min 37 s
Bit rate : 71 b/s
Count of elements : 244
Compression mode : Lossless
Stream size : 12.3 KiB (0%)
Language : German
Default : No
Forced : No

Text #8
ID : 10
Format : ASS
Codec ID : S_TEXT/ASS
Codec ID/Info : Advanced Sub Station Alpha
Duration : 23 min 37 s
Bit rate : 72 b/s
Count of elements : 245
Compression mode : Lossless
Stream size : 12.6 KiB (0%)
Language : French
Default : No
Forced : No

Text #9
ID : 11
Format : ASS
Codec ID : S_TEXT/ASS
Codec ID/Info : Advanced Sub Station Alpha
Duration : 23 min 37 s
Bit rate : 71 b/s
Count of elements : 244
Compression mode : Lossless
Stream size : 12.3 KiB (0%)
Language : Italian
Default : No
Forced : No

Text #10
ID : 12
Format : ASS
Codec ID : S_TEXT/ASS
Codec ID/Info : Advanced Sub Station Alpha
Duration : 23 min 37 s
Bit rate : 67 b/s
Count of elements : 242
Compression mode : Lossless
Stream size : 11.6 KiB (0%)
Language : Polish
Default : No
Forced : No

Text #11
ID : 13
Format : ASS
Codec ID : S_TEXT/ASS
Codec ID/Info : Advanced Sub Station Alpha
Duration : 23 min 37 s
Bit rate : 67 b/s
Count of elements : 239
Compression mode : Lossless
Stream size : 11.8 KiB (0%)
Language : Dutch
Default : No
Forced : No

Text #12
ID : 14
Format : ASS
Codec ID : S_TEXT/ASS
Codec ID/Info : Advanced Sub Station Alpha
Duration : 23 min 37 s
Bit rate : 71 b/s
Count of elements : 245
Compression mode : Lossless
Stream size : 12.3 KiB (0%)
Language : Norwegian Bokmal
Default : No
Forced : No

Text #13
ID : 15
Format : ASS
Codec ID : S_TEXT/ASS
Codec ID/Info : Advanced Sub Station Alpha
Duration : 23 min 37 s
Bit rate : 68 b/s
Count of elements : 237
Compression mode : Lossless
Stream size : 11.8 KiB (0%)
Language : Finnish
Default : No
Forced : No

Text #14
ID : 16
Format : ASS
Codec ID : S_TEXT/ASS
Codec ID/Info : Advanced Sub Station Alpha
Duration : 23 min 37 s
Bit rate : 71 b/s
Count of elements : 246
Compression mode : Lossless
Stream size : 12.4 KiB (0%)
Language : Turkish
Default : No
Forced : No

Text #15
ID : 17
Format : ASS
Codec ID : S_TEXT/ASS
Codec ID/Info : Advanced Sub Station Alpha
Duration : 23 min 37 s
Bit rate : 68 b/s
Count of elements : 245
Compression mode : Lossless
Stream size : 11.8 KiB (0%)
Language : Swedish
Default : No
Forced : No

Text #16
ID : 18
Format : ASS
Codec ID : S_TEXT/ASS
Codec ID/Info : Advanced Sub Station Alpha
Duration : 23 min 37 s
Bit rate : 103 b/s
Count of elements : 244
Compression mode : Lossless
Stream size : 18.0 KiB (0%)
Language : Greek
Default : No
Forced : No

Text #17
ID : 19
Format : ASS
Codec ID : S_TEXT/ASS
Codec ID/Info : Advanced Sub Station Alpha
Duration : 23 min 37 s
Bit rate : 94 b/s
Count of elements : 245
Compression mode : Lossless
Stream size : 16.4 KiB (0%)
Language : Hebrew
Default : No
Forced : No

Text #18
ID : 20
Format : ASS
Codec ID : S_TEXT/ASS
Codec ID/Info : Advanced Sub Station Alpha
Duration : 23 min 37 s
Bit rate : 72 b/s
Count of elements : 245
Compression mode : Lossless
Stream size : 12.5 KiB (0%)
Language : rom
Default : No
Forced : No

Text #19
ID : 21
Format : ASS
Codec ID : S_TEXT/ASS
Codec ID/Info : Advanced Sub Station Alpha
Duration : 23 min 37 s
Bit rate : 129 b/s
Count of elements : 245
Compression mode : Lossless
Stream size : 22.5 KiB (0%)
Language : Thai
Default : No
Forced : No

Text #20
ID : 22
Format : ASS
Codec ID : S_TEXT/ASS
Codec ID/Info : Advanced Sub Station Alpha
Duration : 23 min 37 s
Bit rate : 71 b/s
Count of elements : 245
Compression mode : Lossless
Stream size : 12.4 KiB (0%)
Language : Korean
Default : No
Forced : No

Text #21
ID : 23
Format : ASS
Codec ID : S_TEXT/ASS
Codec ID/Info : Advanced Sub Station Alpha
Duration : 23 min 37 s
Bit rate : 67 b/s
Count of elements : 234
Compression mode : Lossless
Stream size : 11.7 KiB (0%)
Language : Danish
Default : No
Forced : No

Text #22
ID : 24
Format : ASS
Codec ID : S_TEXT/ASS
Codec ID/Info : Advanced Sub Station Alpha
Duration : 23 min 33 s
Bit rate : 146 b/s
Count of elements : 491
Compression mode : Lossless
Stream size : 25.4 KiB (0%)
Language : Japanese
Default : No
Forced : No

Text #23
ID : 25
Format : ASS
Codec ID : S_TEXT/ASS
Codec ID/Info : Advanced Sub Station Alpha
Duration : 23 min 37 s
Bit rate : 68 b/s
Count of elements : 245
Compression mode : Lossless
Stream size : 11.9 KiB (0%)
Language : Chinese
Default : No
Forced : No

Text #24
ID : 26
Format : ASS
Codec ID : S_TEXT/ASS
Codec ID/Info : Advanced Sub Station Alpha
Duration : 23 min 37 s
Bit rate : 69 b/s
Count of elements : 245
Compression mode : Lossless
Stream size : 12.0 KiB (0%)
Language : Chinese
Default : No
Forced : No

Text #25
ID : 27
Format : ASS
Codec ID : S_TEXT/ASS
Codec ID/Info : Advanced Sub Station Alpha
Duration : 23 min 37 s
Bit rate : 86 b/s
Count of elements : 245
Compression mode : Lossless
Stream size : 14.9 KiB (0%)
Language : Vietnamese
Default : No
Forced : No


Screenshots

Little Witch Academia (2017)

Little Witch Academia (2017)

Little Witch Academia (2017)


My publications | Rss Channel