Tags
Language
Tags

Lupin Sansei: Part 5 (2018)

Posted By: Lebedev30
1080p (FullHD) / WEBRip IMDb
Lupin Sansei: Part 5 (2018)

Lupin Sansei: Part 5 (2018)
WEBRip | MKV | 1920x1080 | H264@4793 Kbps | 24x ~ 25mn | 24x ~800 Mb
日本語 AAC@128 Kbps | 2 channels | Subtitles: English, Español, Português
Genre: seinen


Description:
Lupin's current target: a key to a certain server facility. Once obtained, the information of all the customers and their funds from the world's largest online bank will be in Lupin's hands. There, they find the developer of the security system of the bank: Amlita. Lupin and Jigen successfully capture Amlita and bring her to their hideout. However, almost immediately upon their arrival, Zenigata and his men surround the place. Being at a loss as to why their location was exposed so easily, they discover an online show going viral. The show's name: "Arrest Lupin III."






01. The Girl in the Twin Towers
02. The Lupin Game
03. The Killers Gather in the Wasteland
04. Zenigata`s Pride and the Desert Dust
05. A Crook`s Resolve
06. Lupin vs the Smart Safe
07. His Name Is Albert
08. Who Has the Black Notebook?
09. The Man Who Abandoned "Lupin"
10. Thief and Thief
11. Get Pablo`s Collection
12. The Extravagance of Goemon Ishikawa XIII
13. The Bow, the Princess, and the Terrorist
14. How to Steal a Kingdom
15. Her Relationship with Lupin
16. Let`s Talk About First Loves
17. Introducing Detective Jim Barnett III
18. Fujiko`s Gift
19. A 7.62 mm Mirage
20. Zenigata, Gentleman Thief
21. An Outdated Master Thief
22. Answer Me, Zantetsuken
23. Just Then, An Old Buddy Said Something
24. Viva Lupin III


General
Format : Matroska
Format version : Version 4 / Version 2
File size : 801 MiB
Duration : 22 min 44 s
Overall bit rate : 4 924 kb/s
Encoded date : UTC 2018-04-03 18:34:16
Writing application : mkvmerge v12.0.0 ('Trust / Lust') 64bit
Writing library : libebml v1.3.4 + libmatroska v1.4.5

Video
ID : 1
Format : AVC
Format/Info : Advanced Video Codec
Format profile : High@L4
Format settings : CABAC / 4 Ref Frames
Format settings, CABAC : Yes
Format settings, RefFrames : 4 frames
Codec ID : V_MPEG4/ISO/AVC
Duration : 22 min 44 s
Bit rate : 4 793 kb/s
Width : 1 920 pixels
Height : 1 080 pixels
Display aspect ratio : 16:9
Frame rate mode : Constant
Frame rate : 23.976 (24000/1001) FPS
Color space : YUV
Chroma subsampling : 4:2:0
Bit depth : 8 bits
Scan type : Progressive
Bits/(Pixel*Frame) : 0.096
Stream size : 780 MiB (97%)
Writing library : x264 core 142
Encoding settings : cabac=1 / ref=4 / deblock=1:1:1 / analyse=0x3:0x113 / me=umh / subme=8 / psy=1 / psy_rd=0.40:0.00 / mixed_ref=1 / me_range=16 / chroma_me=1 / trellis=1 / 8x8dct=1 / cqm=0 / deadzone=21,11 / fast_pskip=1 / chroma_qp_offset=-2 / threads=12 / lookahead_threads=2 / sliced_threads=0 / nr=0 / decimate=1 / interlaced=0 / bluray_compat=0 / constrained_intra=0 / bframes=3 / b_pyramid=2 / b_adapt=2 / b_bias=0 / direct=3 / weightb=1 / open_gop=0 / weightp=2 / keyint=48 / keyint_min=24 / scenecut=40 / intra_refresh=0 / rc_lookahead=48 / rc=crf / mbtree=1 / crf=15.0 / qcomp=0.60 / qpmin=0 / qpmax=69 / qpstep=4 / vbv_maxrate=8000 / vbv_bufsize=12000 / crf_max=0.0 / nal_hrd=none / filler=0 / ip_ratio=1.40 / aq=1:0.60
Default : Yes
Forced : No

Audio
ID : 2
Format : AAC
Format/Info : Advanced Audio Codec
Format profile : LC
Codec ID : A_AAC-2
Duration : 22 min 44 s
Bit rate : 128 kb/s
Channel(s) : 2 channels
Channel positions : Front: L R
Sampling rate : 44.1 kHz
Frame rate : 43.066 FPS (1024 SPF)
Compression mode : Lossy
Delay relative to video : -83 ms
Stream size : 20.8 MiB (3%)
Default : Yes
Forced : No

Text #1
ID : 3
Format : ASS
Codec ID : S_TEXT/ASS
Codec ID/Info : Advanced Sub Station Alpha
Duration : 22 min 38 s
Bit rate : 119 b/s
Count of elements : 280
Compression mode : Lossless
Stream size : 19.9 KiB (0%)
Title : English(US)
Language : English
Default : Yes
Forced : No

Text #2
ID : 4
Format : ASS
Codec ID : S_TEXT/ASS
Codec ID/Info : Advanced Sub Station Alpha
Duration : 22 min 38 s
Bit rate : 112 b/s
Count of elements : 283
Compression mode : Lossless
Stream size : 18.6 KiB (0%)
Title : Espanol
Language : Spanish
Default : No
Forced : No

Text #3
ID : 5
Format : ASS
Codec ID : S_TEXT/ASS
Codec ID/Info : Advanced Sub Station Alpha
Duration : 22 min 38 s
Bit rate : 116 b/s
Count of elements : 288
Compression mode : Lossless
Stream size : 19.3 KiB (0%)
Title : Portugues(Brasil)
Language : Portuguese
Default : No
Forced : No


Screenshots

Lupin Sansei: Part 5 (2018)

Lupin Sansei: Part 5 (2018)

Lupin Sansei: Part 5 (2018)


My publications | Rss Channel