Tags
Language
Tags

Rerided: Tokigoe no Derrida (2018)

Posted By: Lebedev30
1080p (FullHD) / WEBRip IMDb
Rerided: Tokigoe no Derrida (2018)

Rerided: Tokigoe no Derrida (2018)
WEBRip | MKV | 1920x1080 | H264@3572 Kbps | 12x ~ 25mn | 12x ~600 Mb
日本語 AAC@128 Kbps | 2 channels | Subtitles: العربية, English, Español, Português, Русский, Italiano, Deutsch, Français
Genre: Sci-Fi


Description:
* Based on Yamamoto Souichirou's slice of life comedy shounen manga.

"If you blush, you lose."

Living by this principle, the middle schooler Nishikata gets constantly made fun of by his seat neighbor Takagi-san. With his pride shattered to pieces, he vows to turn the tables and get back at her some day.
And so, he attempts to tease her day after day, only to find himself victim to Takagi-san's ridicule again sooner than later. Will he be able to make Takagi-san blush from embarrassment even once in the end?






01. Eraser / Day Duty / Funny Face / One Hundred Yen
02. Calligraphy / Seasonal Change of Clothing / English Translation / Pool
03. Coffee / Empty Can / Soda / Muscle Training / Dubbing / Umbrella
04. Cleaning Duty / Kickover / Cold / Tailing
05. Studying for the Test / Test / Test Results / Bookstore / Shelter from the Rain
06. Tandem Riding / First Day of Summer Vacation / Test of Courage / Summer Science Project / Water Tap
07. Shopping / Bathing Suit / Ocean / Room
08. Typhoon / Marathon / Ribs / Regret
09. Cell Phone / Horror / Picture
10. Who`s Taller? / I Hate the Cold / Invitation / Two-Choice Question
11. Cat / Taste / Portrait / Fortune Telling / Critical
12. Letter / First Day of School / Seating Arrangement


General
Format : Matroska
Format version : Version 4 / Version 2
File size : 627 MiB
Duration : 23 min 42 s
Overall bit rate : 3 697 kb/s
Encoded date : UTC 2018-09-22 15:13:29
Writing application : mkvmerge v26.0.0 ('In The Game') 64-bit
Writing library : libebml v1.3.6 + libmatroska v1.4.9

Video
ID : 1
Format : AVC
Format/Info : Advanced Video Codec
Format profile : High@L4
Format settings : CABAC / 4 Ref Frames
Format settings, CABAC : Yes
Format settings, RefFrames : 4 frames
Codec ID : V_MPEG4/ISO/AVC
Duration : 23 min 39 s
Bit rate : 3 572 kb/s
Width : 1 920 pixels
Height : 1 080 pixels
Display aspect ratio : 16:9
Frame rate mode : Constant
Frame rate : 23.976 (24000/1001) FPS
Color space : YUV
Chroma subsampling : 4:2:0
Bit depth : 8 bits
Scan type : Progressive
Bits/(Pixel*Frame) : 0.072
Stream size : 605 MiB (96%)
Writing library : x264 core 142
Encoding settings : cabac=1 / ref=4 / deblock=1:1:1 / analyse=0x3:0x113 / me=umh / subme=8 / psy=1 / psy_rd=0.40:0.00 / mixed_ref=1 / me_range=16 / chroma_me=1 / trellis=1 / 8x8dct=1 / cqm=0 / deadzone=21,11 / fast_pskip=1 / chroma_qp_offset=-2 / threads=12 / lookahead_threads=2 / sliced_threads=0 / nr=0 / decimate=1 / interlaced=0 / bluray_compat=0 / constrained_intra=0 / bframes=3 / b_pyramid=2 / b_adapt=2 / b_bias=0 / direct=3 / weightb=1 / open_gop=0 / weightp=2 / keyint=48 / keyint_min=25 / scenecut=0 / intra_refresh=0 / rc_lookahead=48 / rc=crf / mbtree=1 / crf=15.0 / qcomp=0.60 / qpmin=0 / qpmax=69 / qpstep=4 / vbv_maxrate=8000 / vbv_bufsize=12000 / crf_max=0.0 / nal_hrd=none / filler=0 / ip_ratio=1.40 / aq=1:0.60
Default : Yes
Forced : No

Audio
ID : 2
Format : AAC
Format/Info : Advanced Audio Codec
Format profile : LC
Codec ID : A_AAC-2
Duration : 23 min 39 s
Bit rate : 128 kb/s
Channel(s) : 2 channels
Channel positions : Front: L R
Sampling rate : 44.1 kHz
Frame rate : 43.066 FPS (1024 SPF)
Compression mode : Lossy
Delay relative to video : -83 ms
Stream size : 21.7 MiB (3%)
Default : Yes
Forced : No

Text #1
ID : 3
Format : ASS
Codec ID : S_TEXT/ASS
Codec ID/Info : Advanced Sub Station Alpha
Duration : 23 min 34 s
Bit rate : 121 b/s
Count of elements : 352
Compression mode : Lossless
Stream size : 20.9 KiB (0%)
Title : English(US)
Language : English
Default : Yes
Forced : No

Text #2
ID : 4
Format : ASS
Codec ID : S_TEXT/ASS
Codec ID/Info : Advanced Sub Station Alpha
Duration : 23 min 33 s
Bit rate : 177 b/s
Count of elements : 352
Compression mode : Lossless
Stream size : 30.5 KiB (0%)
Title : Arabic
Language : Arabic
Default : No
Forced : No

Text #3
ID : 5
Format : ASS
Codec ID : S_TEXT/ASS
Codec ID/Info : Advanced Sub Station Alpha
Duration : 23 min 33 s
Bit rate : 108 b/s
Count of elements : 300
Compression mode : Lossless
Stream size : 18.7 KiB (0%)
Title : Deutsch
Language : German
Default : No
Forced : No

Text #4
ID : 6
Format : ASS
Codec ID : S_TEXT/ASS
Codec ID/Info : Advanced Sub Station Alpha
Duration : 23 min 36 s
Bit rate : 117 b/s
Count of elements : 340
Compression mode : Lossless
Stream size : 20.4 KiB (0%)
Title : Espanol(Espana)
Language : Spanish
Default : No
Forced : No

Text #5
ID : 7
Format : ASS
Codec ID : S_TEXT/ASS
Codec ID/Info : Advanced Sub Station Alpha
Duration : 23 min 36 s
Bit rate : 120 b/s
Count of elements : 347
Compression mode : Lossless
Stream size : 20.9 KiB (0%)
Title : Espanol
Language : Spanish
Default : No
Forced : No

Text #6
ID : 8
Format : ASS
Codec ID : S_TEXT/ASS
Codec ID/Info : Advanced Sub Station Alpha
Duration : 23 min 33 s
Bit rate : 129 b/s
Count of elements : 331
Compression mode : Lossless
Stream size : 22.3 KiB (0%)
Title : Francais(France)
Language : French
Default : No
Forced : No

Text #7
ID : 9
Format : ASS
Codec ID : S_TEXT/ASS
Codec ID/Info : Advanced Sub Station Alpha
Duration : 23 min 36 s
Bit rate : 136 b/s
Count of elements : 388
Compression mode : Lossless
Stream size : 23.5 KiB (0%)
Title : Italiano
Language : Italian
Default : No
Forced : No

Text #8
ID : 10
Format : ASS
Codec ID : S_TEXT/ASS
Codec ID/Info : Advanced Sub Station Alpha
Duration : 23 min 33 s
Bit rate : 137 b/s
Count of elements : 351
Compression mode : Lossless
Stream size : 23.7 KiB (0%)
Title : Portugues(Brasil)
Language : Portuguese
Default : No
Forced : No

Text #9
ID : 11
Format : ASS
Codec ID : S_TEXT/ASS
Codec ID/Info : Advanced Sub Station Alpha
Duration : 23 min 34 s
Bit rate : 154 b/s
Count of elements : 352
Compression mode : Lossless
Stream size : 26.8 KiB (0%)
Title : Russian
Language : Russian
Default : No
Forced : No


Screenshots

Rerided: Tokigoe no Derrida (2018)

Rerided: Tokigoe no Derrida (2018)

Rerided: Tokigoe no Derrida (2018)


My publications | Rss Channel