Tags
Language
Tags

ITV - 7-63 Up Collection (2019)

Posted By: Tutorial
720p (HD) / BluRay
ITV - 7-63 Up Collection (2019)

ITV - 7-63 Up Collection (2019)
BluRay | 1280 x 720 | .MKV/HEVC @ 818 Kbps | 10x~80mn | 7.19 GB
Audio: English AAC 157 Kbps, 2 channels | Subs: None
Genre: Documentary

The original 7 Up, broadcast in 1964 as a World in Action special, featured children from widely different social backgrounds sharing their hopes and dreams for the future. Inspired by World in Action founder editor Tim Hewat's passionate interest in both the Jesuit saying: "Give me the child until he is seven and I will show you the man" and his anger at Britain's rigid class system, this unique, groundbreaking series set out to discover how far the children's lives were pre-determined by their background.

Director Michael Apted has returned every seven years to chart the group's progress, documenting the participants as they have become adults and now reach retirement age, dealing with everything life has thrown at them in between – with life-changing decisions, shocking announcements and joy and tears in equal measure.

The very first example of a programme recording real people living real lives, the Ups have won an array of awards over the years. This very special set contains every instalment in this ground-breaking series – from 7 through to 63.

General
Unique ID : 299011544068851452055658499581953080736 (0xE0F3875536032C58727214D95F0A7DA0)
Complete name : 7-63.Up.Collection.01of10.Age.7.Up.1964.mkv
Format : Matroska
Format version : Version 4 / Version 2
File size : 277 MiB
Duration : 39 min 37 s
Overall bit rate : 977 kb/s
Encoded date : UTC 2020-02-14 13:41:48
Writing application : mkvmerge v43.0.0 ('The Quartermaster') 64-bit
Writing library : libebml v1.3.10 + libmatroska v1.5.2
Cover : Yes
Attachments : cover.jpg

Video
ID : 2
Format : HEVC
Format/Info : High Efficiency Video Coding
Format profile : Main@L4@Main
Codec ID : V_MPEGH/ISO/HEVC
Duration : 39 min 37 s
Bit rate : 818 kb/s
Width : 1 280 pixels
Height : 720 pixels
Display aspect ratio : 16:9
Frame rate mode : Constant
Frame rate : 25.000 FPS
Standard : Component
Color space : YUV
Chroma subsampling : 4:2:0
Bit depth : 8 bits
Bits/(Pixel*Frame) : 0.035
Stream size : 232 MiB (84%)
Writing library : x265 :[Windows][MSVC 1800][64 bit]
Encoding settings : wpp / ctu=64 / min-cu-size=8 / max-tu-size=32 / tu-intra-depth=4 / tu-inter-depth=4 / me=3 / subme=4 / merange=57 / rect / amp / max-merge=4 / temporal-mvp / no-early-skip / rdpenalty=0 / no-tskip / no-tskip-fast / strong-intra-smoothing / no-lossless / no-cu-lossless / no-constrained-intra / no-fast-intra / open-gop / no-temporal-layers / interlace=0 / keyint=250 / min-keyint=25 / scenecut=40 / rc-lookahead=60 / lookahead-slices=4 / bframes=8 / bframe-bias=0 / b-adapt=2 / ref=4 / limit-refs=3 / limit-modes / weightp / weightb / aq-mode=1 / qg-size=64 / aq-strength=1.00 / cbqpoffs=0 / crqpoffs=0 / rd=4 / psy-rd=2.00 / rdoq-level=2 / psy-rdoq=1.00 / signhide / deblock / sao / no-sao-non-deblock / b-pyramid / cutree / no-intra-refresh / rc=crf / crf=25.0 / qcomp=0.60 / qpmin=0 / qpmax=51 / qpstep=4 / vbv-maxrate=12000000 / vbv-bufsize=12000000 / crf-max=0.0 / ipratio=1.40 / pbratio=1.30
Language : English
Default : Yes
Forced : No
Color range : Limited
Color primaries : BT.709
Transfer characteristics : BT.709
Matrix coefficients : BT.709

Audio
ID : 1
Format : AAC
Format/Info : Advanced Audio Codec
Format profile : LC
Codec ID : A_AAC
Duration : 39 min 37 s
Bit rate : 157 kb/s
Channel(s) : 2 channels
Channel positions : Front: L R
Sampling rate : 48.0 kHz
Frame rate : 46.875 FPS (1024 spf)
Compression mode : Lossy
Stream size : 44.6 MiB (16%)
Language : English
Default : Yes
Forced : No

Menu
00:00:00.000 : en:Chapter 01
00:12:39.560 : en:Chapter 02
00:27:19.680 : en:Chapter 03
Screenshots

ITV - 7-63 Up Collection (2019)

ITV - 7-63 Up Collection (2019)

Welcome to my blog - daily update!

ITV - 7-63 Up Collection (2019)