90 minuti in Paradiso (2015)

Posted By: JohnSmith
90 minuti in Paradiso (2015)

90 minuti in Paradiso / 90 Minutes in Heaven (2015)
BDRip | MKV / AVC@1838 kb/s | 848x356 | 2h 2mn | 1.94 GB
Italian: AC3, 448 kb/s (6 ch) | Subtiltes: Italian (forced, full)
Genre: Drama

Don Piper muore il 18 gennaio 1989 quando la sua auto finisce sotto un camion e viene dichiarato morto dai primi soccorritori arrivati sul posto. Il suo corpo rimane sotto un telo per i successivi novanta minuti mentre la sua anima, che stava sperimentando l'amore e la felicità come non mai prima, sale in Paradiso. Le preghiere di un pastore però generano un miracolo e Don ritorna in vita, distrutto da un lancinante dolore e da un forte tumulto emotivo. Con il sostegno dell'amata Eva, dei loro tre figli e di amici vicini e lontani, Don si aggrapperà alla sua fede in Dio per ricominciare a vivere come un tempo.




General
Unique ID : 172686014931937991866060871658192258323 (0x81EA1DE0EE75C0748D3E44C5EA184513)
Complete name : C:\90MinutiinParadiso480p.mkv
Format : Matroska
Format version : Version 4 / Version 2
File size : 1.94 GiB
Duration : 2h 2mn
Overall bit rate : 2 273 Kbps
Encoded date : UTC 2016-03-27 18:17:58
Writing application : mkvmerge v8.3.0 ('Over the Horizon') 64bit
Writing library : libebml v1.3.1 + libmatroska v1.4.2
DURATION : 01:56:15.639000000
NUMBER_OF_FRAMES : 1404
NUMBER_OF_BYTES : 47054
_STATISTICS_WRITING_APP : mkvmerge v8.3.0 ('Over the Horizon') 64bit
_STATISTICS_WRITING_DATE_UT : 2016-03-27 18:17:58
_STATISTICS_TAGS : BPS DURATION NUMBER_OF_FRAMES NUMBER_OF_BYTES

Video
ID : 1
Format : AVC
Format/Info : Advanced Video Codec
Format profile : Main@L3
Format settings, CABAC : Yes
Format settings, ReFrames : 1 frame
Format settings, GOP : N=1
Codec ID : V_MPEG4/ISO/AVC
Duration : 2h 2mn
Bit rate : 1 838 Kbps
Width : 848 pixels
Height : 356 pixels
Display aspect ratio : 2.40:1
Frame rate mode : Constant
Frame rate : 23.976 fps
Color space : YUV
Chroma subsampling : 4:2:0
Bit depth : 8 bits
Scan type : Progressive
Bits/(Pixel*Frame) : 0.254
Stream size : 1.52 GiB (78%)
Writing library : x264 core 129
Encoding settings : cabac=1 / ref=1 / deblock=1:0:0 / analyse=0x1:0x131 / me=dia / subme=2 / psy=1 / psy_rd=1.00:0.00 / mixed_ref=0 / me_range=16 / chroma_me=1 / trellis=0 / 8x8dct=0 / cqm=0 / deadzone=21,11 / fast_pskip=1 / chroma_qp_offset=0 / threads=8 / lookahead_threads=1 / sliced_threads=0 / nr=0 / decimate=1 / interlaced=0 / bluray_compat=0 / constrained_intra=0 / bframes=0 / weightp=2 / keyint=250 / keyint_min=25 / scenecut=40 / intra_refresh=0 / rc_lookahead=40 / rc=abr / mbtree=1 / bitrate=1838 / ratetol=1.0 / qcomp=0.60 / qpmin=10 / qpmax=51 / qpstep=4 / ip_ratio=1.41 / aq=1:1.00
Language : English
Default : Yes
Forced : No
DURATION : 02:02:00.313000000
NUMBER_OF_FRAMES : 175512
NUMBER_OF_BYTES : 1668277707
_STATISTICS_WRITING_APP : mkvmerge v8.3.0 ('Over the Horizon') 64bit
_STATISTICS_WRITING_DATE_UT : 2016-03-27 18:17:58
_STATISTICS_TAGS : BPS DURATION NUMBER_OF_FRAMES NUMBER_OF_BYTES

Audio
ID : 2
Format : AC-3
Format/Info : Audio Coding 3
Mode extension : CM (complete main)
Format settings, Endianness : Big
Codec ID : A_AC3
Duration : 2h 2mn
Bit rate mode : Constant
Bit rate : 448 Kbps
Channel(s) : 6 channels
Channel positions : Front: L C R, Side: L R, LFE
Sampling rate : 48.0 KHz
Compression mode : Lossy
Stream size : 391 MiB (20%)
Title : DVD
Language : Italian
Default : Yes
Forced : No
DURATION : 02:02:00.512000000
NUMBER_OF_FRAMES : 228766
NUMBER_OF_BYTES : 409948672
_STATISTICS_WRITING_APP : mkvmerge v8.3.0 ('Over the Horizon') 64bit
_STATISTICS_WRITING_DATE_UT : 2016-03-27 18:17:58
_STATISTICS_TAGS : BPS DURATION NUMBER_OF_FRAMES NUMBER_OF_BYTES

Text #1
ID : 3
Format : UTF-8
Codec ID : S_TEXT/UTF8
Codec ID/Info : UTF-8 Plain Text
Title : Forced
Language : Italian
Default : Yes
Forced : Yes

Text #2
ID : 4
Format : UTF-8
Codec ID : S_TEXT/UTF8
Codec ID/Info : UTF-8 Plain Text
Language : Italian
Default : No
Forced : No


Screenshots

90 minuti in Paradiso (2015)

90 minuti in Paradiso (2015)

90 minuti in Paradiso (2015)