Tags
Language
Tags

A Beautiful Planet (2016)

Posted By: Tavaz
1080p (FullHD) / BDRip IMDb
A Beautiful Planet (2016)

A Beautiful Planet (2016)
BDRip | MKV | 1920x1080 | English | H264 @ 5760 kbps | AC-3 @ 448 kbps | 46 min 17 s | 2.01 GiB
Subtitles: English
Genre: Documentary

A breathtaking portrait of Earth from space, providing a unique perspective and increased understanding of our planet and galaxy as never seen before. Made in cooperation with the National Aeronautics and Space Administration (NASA), the film features stunning footage of our magnificent blue planet — and the effects humanity has had on it over time — captured by the astronauts aboard the International Space Station (ISS).

6de3ea874140296f06eec8f55b6f70c5.mkv (2.0 GB)



General
Unique ID : 75119422661180670964744815611589774257 (0x3883797C29B1373852E7360CF7494BB1)
Complete name : ./6de3ea874140296f06eec8f55b6f70c5.mkv
Format : Matroska
Format version : Version 4 / Version 2
File size : 2.01 GiB
Duration : 46 min 17 s
Overall bit rate : 6 210 kb/s
Movie name : A.Beautiful.Planet.2016.1080p.BluRay.x264-nikt0
Encoded date : UTC 2020-12-20 04:09:13 / UTC 2020-12-18T23:52:45Z
Writing application : mkvmerge v47.0.0 ('Black Flag') 64-bit
Writing library : libebml v1.3.10 + libmatroska v1.5.2 / Lavf57.7.2

Video
ID : 1
Format : AVC
Format/Info : Advanced Video Codec
Format profile : High@L4
Format settings : CABAC / 4 Ref Frames
Format settings, CABAC : Yes
Format settings, RefFrames : 4 frames
Codec ID : V_MPEG4/ISO/AVC
Duration : 46 min 17 s
Bit rate : 5 760 kb/s
Width : 1 920 pixels
Height : 1 080 pixels
Display aspect ratio : 16:9
Frame rate mode : Constant
Frame rate : 23.976 (24000/1001) FPS
Color space : YUV
Chroma subsampling : 4:2:0
Bit depth : 8 bits
Scan type : Progressive
Bits/(Pixel*Frame) : 0.116
Stream size : 1.82 GiB (91%)
Writing library : x264 core 155 r2901 7d0ff22
Encoding settings : cabac=1 / ref=4 / deblock=1:-3:-3 / analyse=0x3:0x133 / me=umh / subme=9 / psy=1 / psy_rd=1.10:0.25 / mixed_ref=1 / me_range=32 / chroma_me=1 / trellis=2 / 8x8dct=1 / cqm=0 / deadzone=6,6 / fast_pskip=1 / chroma_qp_offset=-4 / threads=34 / lookahead_threads=3 / sliced_threads=0 / nr=0 / decimate=1 / interlaced=0 / bluray_compat=0 / constrained_intra=0 / bframes=6 / b_pyramid=2 / b_adapt=2 / b_bias=0 / direct=3 / weightb=1 / open_gop=0 / weightp=2 / keyint=240 / keyint_min=24 / scenecut=40 / intra_refresh=0 / rc_lookahead=40 / rc=2pass / mbtree=1 / bitrate=5760 / ratetol=1.0 / qcomp=0.60 / qpmin=0 / qpmax=69 / qpstep=4 / cplxblur=20.0 / qblur=0.5 / vbv_maxrate=20000 / vbv_bufsize=25000 / nal_hrd=none / filler=0 / ip_ratio=1.40 / aq=1:1.00
Language : English
Default : Yes
Forced : No
Color range : Limited
Color primaries : BT.709
Transfer characteristics : BT.709
Matrix coefficients : BT.709
Statistics Tags Issue : mkvmerge v47.0.0 ('Black Flag') 64-bit 2020-12-20 04:09:13 / mkvmerge v47.0.0 ('Black Flag') 64-bit 2020-12-20 04:09:13 / UTC 2020-12-18T23:52:45Z
FromStats_BitRate : 5759746
FromStats_Duration : 00:46:17.150000000
FromStats_FrameCount : 66585
FromStats_StreamSize : 1999460095

Audio
ID : 2
Format : AC-3
Format/Info : Audio Coding 3
Format settings, Endianness : Big
Codec ID : A_AC3
Duration : 46 min 17 s
Bit rate mode : Constant
Bit rate : 448 kb/s
Channel(s) : 6 channels
Channel positions : Front: L C R, Side: L R, LFE
Sampling rate : 48.0 kHz
Frame rate : 31.250 FPS (1536 SPF)
Bit depth : 16 bits
Compression mode : Lossy
Stream size : 148 MiB (7%)
Title : Surround
Language : English
Service kind : Complete Main
Default : Yes
Forced : No
Statistics Tags Issue : mkvmerge v47.0.0 ('Black Flag') 64-bit 2020-12-20 04:09:13 / mkvmerge v47.0.0 ('Black Flag') 64-bit 2020-12-20 04:09:13 / UTC 2020-12-18T23:52:45Z
FromStats_BitRate : 448000
FromStats_Duration : 00:46:17.088000000
FromStats_FrameCount : 86784
FromStats_StreamSize : 155516928

Text
ID : 3
Format : UTF-8
Codec ID : S_TEXT/UTF8
Codec ID/Info : UTF-8 Plain Text
Language : English
Default : Yes
Forced : No
Statistics Tags Issue : mkvmerge v47.0.0 ('Black Flag') 64-bit 2020-12-20 04:09:13 / mkvmerge v47.0.0 ('Black Flag') 64-bit 2020-12-20 04:09:13 / UTC 2020-12-18T23:52:45Z
FromStats_BitRate : 80
FromStats_Duration : 00:46:08.808000000
FromStats_FrameCount : 736
FromStats_StreamSize : 27843

Menu
00:00:00.000 : :An Ordinary Galaxy
00:05:37.462 : :Past, Present & Future
00:16:51.260 : :Gravity
00:28:30.083 : :Weightlessness
00:39:35.874 : :Nuclear Fusion
00:44:24.203 : :End Credits





A Beautiful Planet (2016)


A Beautiful Planet (2016)


A Beautiful Planet (2016)


A Beautiful Planet (2016)


A Beautiful Planet (2016)