Tags
Language
Tags
February 2023
Su Mo Tu We Th Fr Sa
29 30 31 1 2 3 4
5 6 7 8 9 10 11
12 13 14 15 16 17 18
19 20 21 22 23 24 25
26 27 28 1 2 3 4

A Few Good Men (1992)

Posted By: Tavaz
1080p (FullHD) / BDRip IMDb
A Few Good Men (1992)

A Few Good Men (1992)
BDRip | MKV | 1920x820 | English | H265 @ 2626 kbps | AC-3 @ 448 kbps | 2 h 18 min | 3.03 GiB
Subtitles: English
Genre: Drama

When cocky military lawyer Lt. Daniel Kaffee and his co-counsel, Lt. Cmdr. JoAnne Galloway, are assigned to a murder case, they uncover a hazing ritual that could implicate high-ranking officials such as shady Col. Nathan Jessep.

3abb9d92b2c84f1181b609cb9f568c25.mkv (3.0 GB)



General
Complete name : ./3abb9d92b2c84f1181b609cb9f568c25.mkv
Format : Matroska
Format version : Version 2
File size : 3.03 GiB
Duration : 2 h 18 min
Overall bit rate : 3 140 kb/s
Encoded date : UTC 2018-02-12 21:33:13
Writing application : DVDFab 10.0.8.1
Writing library : libebml v1.3.4 + libmatroska v1.4.5

Video
ID : 1
Format : HEVC
Format/Info : High Efficiency Video Coding
Format profile : Main 10@L4@Main
Codec ID : V_MPEGH/ISO/HEVC
Duration : 2 h 18 min
Bit rate : 2 626 kb/s
Width : 1 920 pixels
Height : 820 pixels
Display aspect ratio : 2.35:1
Frame rate mode : Constant
Frame rate : 23.976 (24000/1001) FPS
Color space : YUV
Chroma subsampling : 4:2:0
Bit depth : 10 bits
Bits/(Pixel*Frame) : 0.070
Stream size : 2.53 GiB (84%)
Default : Yes
Forced : No
Color range : Limited
Color primaries : BT.709
Transfer characteristics : BT.709
Matrix coefficients : BT.709

Audio
ID : 2
Format : AC-3
Format/Info : Audio Coding 3
Format settings, Endianness : Big
Codec ID : A_AC3
Duration : 2 h 18 min
Bit rate mode : Constant
Bit rate : 448 kb/s
Channel(s) : 6 channels
Channel positions : Front: L C R, Side: L R, LFE
Sampling rate : 48.0 kHz
Frame rate : 31.250 FPS (1536 SPF)
Bit depth : 16 bits
Compression mode : Lossy
Stream size : 442 MiB (14%)
Language : English
Service kind : Complete Main
Default : Yes
Forced : No

Text #1
ID : 3
Format : VobSub
Codec ID : S_VOBSUB
Codec ID/Info : Picture based subtitle format used on DVDs
Duration : 2 h 9 min
Bit rate : 15.2 kb/s
Count of elements : 1692
Stream size : 14.1 MiB (0%)
Language : English
Default : No
Forced : No

Text #2
ID : 4
Format : VobSub
Codec ID : S_VOBSUB
Codec ID/Info : Picture based subtitle format used on DVDs
Duration : 2 h 14 min
Bit rate : 12.7 kb/s
Count of elements : 1840
Stream size : 12.2 MiB (0%)
Language : English
Default : No
Forced : No

Text #3
ID : 5
Format : VobSub
Codec ID : S_VOBSUB
Codec ID/Info : Picture based subtitle format used on DVDs
Duration : 2 h 9 min
Bit rate : 15.2 kb/s
Count of elements : 1659
Stream size : 14.1 MiB (0%)
Language : English
Default : No
Forced : No

Text #4
ID : 6
Format : VobSub
Codec ID : S_VOBSUB
Codec ID/Info : Picture based subtitle format used on DVDs
Duration : 2 h 14 min
Bit rate : 10.8 kb/s
Count of elements : 1840
Stream size : 10.3 MiB (0%)
Language : English
Default : No
Forced : No

Text #5
ID : 7
Format : VobSub
Codec ID : S_VOBSUB
Codec ID/Info : Picture based subtitle format used on DVDs
Duration : 2 h 14 min
Bit rate : 12.5 kb/s
Count of elements : 1701
Stream size : 12.0 MiB (0%)
Language : English
Default : No
Forced : No

Menu
00:00:00.000 : en:(01)00:00:00:000
00:07:58.895 : en:(02)00:07:58:895
00:16:32.157 : en:(03)00:16:32:157
00:25:08.673 : en:(04)00:25:08:673
00:40:06.737 : en:(05)00:40:06:737
00:47:42.025 : en:(06)00:47:42:025
00:57:11.302 : en:(07)00:57:11:302
01:05:26.505 : en:(08)01:05:26:505
01:13:03.712 : en:(09)01:13:03:712
01:22:52.550 : en:(10)01:22:52:550
01:26:20.133 : en:(11)01:26:20:133
01:31:10.381 : en:(12)01:31:10:381
01:39:52.820 : en:(13)01:39:52:820
01:54:37.829 : en:(14)01:54:37:829
02:02:41.228 : en:(15)02:02:41:228
02:10:35.118 : en:(16)02:10:35:118





A Few Good Men (1992)


A Few Good Men (1992)


A Few Good Men (1992)


A Few Good Men (1992)


A Few Good Men (1992)