Tags
Language
Tags

A Madea Family Funeral (2019)

Posted By: Tavaz
1080p (FullHD) / BDRip IMDb
A Madea Family Funeral (2019)

A Madea Family Funeral (2019)
BDRip | MOV | 1920x1040 | English | H264 @ 3481 kbps | AC-3 @ 448 kbps | 1 h 49 min | 3.02 GiB
Subtitles: English
Genre: Comedy

A joyous family reunion becomes a hilarious nightmare as Madea and the crew travel to backwoods Georgia, where they find themselves unexpectedly planning a funeral that might unveil unpleasant family secrets.

fe3ad99de8934549aad2d97aa34e3a79.mp4 (3.0 GB)



General
Complete name : ./fe3ad99de8934549aad2d97aa34e3a79.mp4
Format : MPEG-4
Format profile : Base Media / Version 2
Codec ID : mp42 (mp42/isom/avc1)
File size : 3.02 GiB
Duration : 1 h 49 min
Overall bit rate mode : Variable
Overall bit rate : 3 950 kb/s
Movie name : A.Madea.Family.Funeral.2019.1080p.BluRay.H264.AC3.DD5.1
Encoded date : UTC 2020-06-27 20:07:32
Tagged date : UTC 2020-06-27 20:18:07
Writing application : DVDFab 11.0.4.2
Cover : Yes

Video
ID : 1
Format : AVC
Format/Info : Advanced Video Codec
Format profile : Main@L4
Format settings : CABAC / 2 Ref Frames
Format settings, CABAC : Yes
Format settings, RefFrames : 2 frames
Format settings, GOP : M=1, N=24
Codec ID : avc1
Codec ID/Info : Advanced Video Coding
Duration : 1 h 49 min
Bit rate mode : Variable
Bit rate : 3 482 kb/s
Maximum bit rate : 5 325 kb/s
Width : 1 920 pixels
Height : 1 040 pixels
Display aspect ratio : 1.85:1
Frame rate mode : Constant
Frame rate : 23.976 (24000/1001) FPS
Color space : YUV
Chroma subsampling : 4:2:0
Bit depth : 8 bits
Scan type : Progressive
Bits/(Pixel*Frame) : 0.073
Stream size : 2.66 GiB (88%)
Encoded date : UTC 2020-06-27 20:07:32
Tagged date : UTC 2020-06-27 20:18:07
Color primaries : BT.709
Transfer characteristics : BT.709
Matrix coefficients : BT.709

Audio
ID : 2
Format : AC-3
Format/Info : Audio Coding 3
Format settings, Endianness : Big
Codec ID : ac-3
Duration : 1 h 49 min
Bit rate mode : Constant
Bit rate : 448 kb/s
Channel(s) : 6 channels
Channel positions : Front: L C R, Side: L R, LFE
Sampling rate : 48.0 kHz
Frame rate : 31.250 FPS (1536 SPF)
Bit depth : 16 bits
Compression mode : Lossy
Stream size : 351 MiB (11%)
Title : English (ac3 5.1)
Language : English
Service kind : Complete Main
Default : Yes
Alternate group : 1
Encoded date : UTC 2020-06-27 20:07:32
Tagged date : UTC 2020-06-27 20:18:07

Text
ID : 3
Format : VobSub
Codec ID : mp4s-E0
Codec ID/Info : The same subtitle format used on DVDs
Duration : 1 h 45 min
Bit rate mode : Variable
Bit rate : 18.8 kb/s
Maximum bit rate : 3 767 Mb/s
Stream size : 14.1 MiB (0%)
Language : English
Default : Yes
Forced : No
Alternate group : 2
Encoded date : UTC 2020-06-27 20:07:32
Tagged date : UTC 2020-06-27 20:17:44





A Madea Family Funeral (2019)


A Madea Family Funeral (2019)


A Madea Family Funeral (2019)


A Madea Family Funeral (2019)


A Madea Family Funeral (2019)