Tags
Language
Tags

A Night in Casablanca (1946)

Posted By: Tavaz
1080p (FullHD) / WEBRip IMDb
A Night in Casablanca (1946)

A Night in Casablanca (1946)
WEBRip | MKV | 1440x1080 | English | H264 @ 13279 kbps | E-AC-3 @ 224 kbps | 1 h 24 min | 8.00 GiB
Subtitles: Dutch
Genre: Comedy

In this Marx Brothers film, Ronald Kornblow (Groucho Marx) takes over as the manager of a luxurious hotel in Casablanca, in the aftermath of World War II. After discovering that both of his predecessors had been murdered, Kornblow begins to fear for his safety – especially when Nazi Count Pfefferman (Sig Ruman) tries to take over Kornblow's job in a bid to get his hands on valuable items that were stashed in the hotel by the Nazis at the tail end of the war.

A.Night.in.Casablanca.1946.1080p.WEB-DL.DD+2.0.H.264-SbR.Subs.NL.mkv (8.0 GB)



General
Unique ID : 319756011376147943433771372124126047030 (0xF08EC4895842F10964EEE60A4AAFEB36)
Complete name : ./A.Night.in.Casablanca.1946.1080p.WEB-DL.DD+2.0.H.264-SbR.Subs.NL.mkv
Format : Matroska
Format version : Version 4 / Version 2
File size : 8.00 GiB
Duration : 1 h 24 min
Overall bit rate mode : Variable
Overall bit rate : 13.5 Mb/s
Encoded date : UTC 2018-01-02 22:40:45
Writing application : mkvmerge v19.0.0 ('Brave Captain') 32-bit
Writing library : libebml v1.3.5 + libmatroska v1.4.8
Cover : Yes
Attachments : cover.jpg

Video
ID : 1
Format : AVC
Format/Info : Advanced Video Codec
Format profile : High@L4
Format settings : CABAC / 4 Ref Frames
Format settings, CABAC : Yes
Format settings, RefFrames : 4 frames
Codec ID : V_MPEG4/ISO/AVC
Duration : 1 h 24 min
Bit rate mode : Variable
Bit rate : 13.3 Mb/s
Maximum bit rate : 15.0 Mb/s
Width : 1 440 pixels
Height : 1 080 pixels
Display aspect ratio : 4:3
Frame rate mode : Constant
Frame rate : 23.976 (24000/1001) FPS
Color space : YUV
Chroma subsampling : 4:2:0
Bit depth : 8 bits
Scan type : Progressive
Bits/(Pixel*Frame) : 0.356
Stream size : 7.86 GiB (98%)
Default : Yes
Forced : No
Color range : Limited
Color primaries : BT.709
Transfer characteristics : BT.709
Matrix coefficients : BT.709

Audio
ID : 2
Format : E-AC-3
Format/Info : Enhanced Audio Coding 3
Format settings, Endianness : Big
Codec ID : A_EAC3
Duration : 1 h 24 min
Bit rate mode : Constant
Bit rate : 224 kb/s
Channel(s) : 2 channels
Channel positions : Front: L R
Sampling rate : 48.0 kHz
Frame rate : 187.500 FPS (256 SPF)
Compression mode : Lossy
Stream size : 136 MiB (2%)
Language : English
Service kind : Complete Main
Default : Yes
Forced : No

Text
ID : 3
Format : UTF-8
Codec ID : S_TEXT/UTF8
Codec ID/Info : UTF-8 Plain Text
Duration : 1 h 22 min
Bit rate : 43 b/s
Count of elements : 742
Stream size : 26.4 KiB (0%)
Language : Dutch
Default : Yes
Forced : No

Menu
00:00:00.000 : en:Casa
00:09:00.000 : en:Casa
00:18:00.000 : en:Casa
00:27:00.000 : en:Casa
00:36:00.000 : en:Casa
00:45:00.000 : en:Casa
00:54:00.000 : en:Casa
01:03:00.000 : en:Casa
01:12:00.000 : en:Casa
01:21:00.000 : en:Casa





A Night in Casablanca (1946)


A Night in Casablanca (1946)


A Night in Casablanca (1946)


A Night in Casablanca (1946)


A Night in Casablanca (1946)