Tags
Language
Tags

A Nightmare on Elm Street (1984)

Posted By: Tavaz
1080p (FullHD) / BDRip IMDb
A Nightmare on Elm Street (1984)

A Nightmare on Elm Street (1984)
BDRip | MKV | 1920x1080 | English | H264 @ 12025 kbps | AC-3 @ 448 kbps | 1 h 31 min | 7.95 GiB
Genre: Horror

Teenagers in a small town are dropping like flies, apparently in the grip of mass hysteria causing their suicides. A cop's daughter, Nancy Thompson, traces the cause to child molester Fred Krueger, who was burned alive by angry parents many years before. Krueger has now come back in the dreams of his killers' children, claiming their lives as his revenge. Nancy and her boyfriend, Glen, must devise a plan to lure the monster out of the realm of nightmares and into the real world…

69c87aaeba84cef31a04ac96429d57f3.mkv (7.9 GB)



General
Unique ID : 192291907517497189010964043749106793653 (0x90AA1303B1E178D6A764F06D5C7A3CB5)
Complete name : ./69c87aaeba84cef31a04ac96429d57f3.mkv
Format : Matroska
Format version : Version 1
File size : 7.95 GiB
Duration : 1 h 31 min
Overall bit rate : 12.5 Mb/s
Encoded date : UTC 2008-09-23 13:05:27
Writing application : mkvmerge v2.2.0 ('Turn It On Again') built on Mar 4 2008 12:58:26
Writing library : libebml v0.7.7 + libmatroska v0.8.1

Video
ID : 1
Format : AVC
Format/Info : Advanced Video Codec
Format profile : High@L4.1
Format settings : CABAC / 5 Ref Frames
Format settings, CABAC : Yes
Format settings, RefFrames : 5 frames
Codec ID : V_MPEG4/ISO/AVC
Duration : 1 h 31 min
Bit rate : 12.0 Mb/s
Width : 1 920 pixels
Height : 1 080 pixels
Display aspect ratio : 16:9
Frame rate mode : Constant
Frame rate : 23.976 (23976/1000) FPS
Color space : YUV
Chroma subsampling : 4:2:0
Bit depth : 8 bits
Scan type : Progressive
Bits/(Pixel*Frame) : 0.242
Stream size : 7.50 GiB (94%)
Writing library : x264 core 64 r985M e256ea1
Encoding settings : cabac=1 / ref=5 / deblock=0:0:0 / analyse=0x3:0x2 / me=hex / subme=6 / psy_rd=1.0:0.0 / brdo=0 / mixed_ref=1 / me_range=16 / chroma_me=1 / trellis=1 / 8x8dct=1 / cqm=0 / deadzone=21,11 / chroma_qp_offset=-2 / threads=3 / nr=0 / decimate=1 / mbaff=0 / bframes=3 / b_pyramid=1 / b_adapt=1 / b_bias=0 / direct=3 / wpredb=1 / bime=1 / keyint=150 / keyint_min=25 / scenecut=40(pre) / rc=2pass / bitrate=12025 / ratetol=1.0 / qcomp=0.60 / qpmin=10 / qpmax=51 / qpstep=4 / cplxblur=20.0 / qblur=0.5 / ip_ratio=1.40 / pb_ratio=1.30 / aq=1:1.00
Language : English
Default : Yes
Forced : No

Audio
ID : 2
Format : AC-3
Format/Info : Audio Coding 3
Format settings, Endianness : Big
Codec ID : A_AC3
Duration : 1 h 31 min
Bit rate mode : Constant
Bit rate : 448 kb/s
Channel(s) : 6 channels
Channel positions : Front: L C R, Side: L R, LFE
Sampling rate : 48.0 kHz
Frame rate : 31.250 FPS (1536 SPF)
Bit depth : 16 bits
Compression mode : Lossy
Stream size : 292 MiB (4%)
Language : English
Service kind : Complete Main
Default : Yes
Forced : No





A Nightmare on Elm Street (1984)


A Nightmare on Elm Street (1984)


A Nightmare on Elm Street (1984)


A Nightmare on Elm Street (1984)


A Nightmare on Elm Street (1984)