A Nightmare on Elm Street 3: Dream Warriors (1987)

Posted By: Tavaz
1080p (FullHD) / BDRip IMDb
A Nightmare on Elm Street 3: Dream Warriors (1987)

A Nightmare on Elm Street 3: Dream Warriors (1987)
BDRip | MKV | 1920x1080 | English | H264 @ 5760 kbps | AC-3 @ 448 kbps | 1 h 36 min | 4.18 GiB
Subtitles: English
Genre: Horror, Thriller

It's been many years since Freddy Krueger's first victim, Nancy, came face-to-face with Freddy and his sadistic, evil ways. Now, Nancy's all grown up; she's put her frightening nightmares behind her and is helping teens cope with their dreams. Too bad Freddy's decided to herald his return by invading the kids' dreams and scaring them into committing suicide.

d5c31b1a95714372a4062ee65f0c45f2.mkv (4.2 GB)



General
Unique ID : 124885591878803528431539415233660524552 (0x5DF41710EFEC1EF8608D073D7B211808)
Complete name : ./d5c31b1a95714372a4062ee65f0c45f2.mkv
Format : Matroska
Format version : Version 4 / Version 2
File size : 4.18 GiB
Duration : 1 h 36 min
Overall bit rate : 6 202 kb/s
Movie name : A.Nightmare.on.Elm.Street.3.Dream.Warriors.1987.1080p.BluRay.x264-nikt0
Encoded date : UTC 2018-04-12 23:53:58 / UTC 2018-04-10T18:58:35Z
Writing application : mkvmerge v22.0.0 ('At The End Of The World') 64-bit
Writing library : libebml v1.3.5 + libmatroska v1.4.8 / Lavf57.7.2

Video
ID : 1
Format : AVC
Format/Info : Advanced Video Codec
Format profile : High@L4
Format settings : CABAC / 4 Ref Frames
Format settings, CABAC : Yes
Format settings, RefFrames : 4 frames
Codec ID : V_MPEG4/ISO/AVC
Duration : 1 h 36 min
Bit rate : 5 760 kb/s
Width : 1 920 pixels
Height : 1 080 pixels
Display aspect ratio : 16:9
Frame rate mode : Constant
Frame rate : 23.976 (24000/1001) FPS
Color space : YUV
Chroma subsampling : 4:2:0
Bit depth : 8 bits
Scan type : Progressive
Bits/(Pixel*Frame) : 0.116
Stream size : 3.80 GiB (91%)
Writing library : x264 core 148 r2708 86b7198
Encoding settings : cabac=1 / ref=4 / deblock=1:-3:-3 / analyse=0x3:0x133 / me=umh / subme=9 / psy=1 / psy_rd=1.10:0.25 / mixed_ref=1 / me_range=32 / chroma_me=1 / trellis=2 / 8x8dct=1 / cqm=0 / deadzone=6,6 / fast_pskip=1 / chroma_qp_offset=-4 / threads=18 / lookahead_threads=2 / sliced_threads=0 / nr=0 / decimate=1 / interlaced=0 / bluray_compat=0 / constrained_intra=0 / bframes=6 / b_pyramid=2 / b_adapt=2 / b_bias=0 / direct=3 / weightb=1 / open_gop=0 / weightp=2 / keyint=240 / keyint_min=24 / scenecut=40 / intra_refresh=0 / rc_lookahead=40 / rc=2pass / mbtree=1 / bitrate=5760 / ratetol=1.0 / qcomp=0.60 / qpmin=0 / qpmax=69 / qpstep=4 / cplxblur=20.0 / qblur=0.5 / vbv_maxrate=20000 / vbv_bufsize=25000 / nal_hrd=none / filler=0 / ip_ratio=1.40 / aq=1:1.00
Default : Yes
Forced : No
Color range : Limited
Color primaries : BT.709
Transfer characteristics : BT.709
Matrix coefficients : BT.709
Statistics Tags Issue : mkvmerge v22.0.0 ('At The End Of The World') 64-bit 2018-04-12 23:53:58 / mkvmerge v22.0.0 ('At The End Of The World') 64-bit 2018-04-12 23:53:58 / UTC 2018-04-10T18:58:35Z
FromStats_BitRate : 5752174
FromStats_Duration : 01:36:31.828000000
FromStats_FrameCount : 138865
FromStats_StreamSize : 4164450798

Audio
ID : 2
Format : AC-3
Format/Info : Audio Coding 3
Format settings, Endianness : Big
Codec ID : A_AC3
Duration : 1 h 36 min
Bit rate mode : Constant
Bit rate : 448 kb/s
Channel(s) : 6 channels
Channel positions : Front: L C R, Side: L R, LFE
Sampling rate : 48.0 kHz
Frame rate : 31.250 FPS (1536 SPF)
Bit depth : 16 bits
Compression mode : Lossy
Delay relative to video : -5 ms
Stream size : 309 MiB (7%)
Title : Surround
Language : English
Service kind : Complete Main
Default : Yes
Forced : No
Statistics Tags Issue : mkvmerge v22.0.0 ('At The End Of The World') 64-bit 2018-04-12 23:53:58 / mkvmerge v22.0.0 ('At The End Of The World') 64-bit 2018-04-12 23:53:58 / UTC 2018-04-10T18:58:35Z
FromStats_BitRate : 448000
FromStats_Duration : 01:36:31.808000000
FromStats_FrameCount : 180994
FromStats_StreamSize : 324341248

Text
ID : 3
Format : UTF-8
Codec ID : S_TEXT/UTF8
Codec ID/Info : UTF-8 Plain Text
Language : English
Default : Yes
Forced : No
Statistics Tags Issue : mkvmerge v22.0.0 ('At The End Of The World') 64-bit 2018-04-12 23:53:58 / mkvmerge v22.0.0 ('At The End Of The World') 64-bit 2018-04-12 23:53:58 / UTC 2018-04-10T18:58:35Z
FromStats_BitRate : 50
FromStats_Duration : 01:33:47.164000000
FromStats_FrameCount : 1093
FromStats_StreamSize : 35335

Menu
00:00:00.000 : :Opening Titles/Model Home
00:03:21.868 : :"Get to Sleep"
00:04:12.127 : :"This Is Where He Takes Us"
00:08:31.094 : :Suicide
00:09:31.613 : :Springwood's Troubled Teens
00:14:37.502 : :Making the Rounds
00:18:49.879 : :Sucked In
00:22:50.744 : :Pull Someone Into Your Dream
00:25:53.927 : :Conquering the Dream
00:29:25.430 : :Phillip Takes a Walk
00:32:41.710 : :"It Was Murder"
00:35:38.803 : :Staying Awake
00:38:42.570 : :"Your Big Break in Tv"
00:40:16.623 : :An Unquiet Spirit
00:42:05.523 : :Trusting Nancy
00:47:44.445 : :Joey Wets His Whistle
00:50:46.043 : :Freddy's Turn
00:54:43.280 : :"the Bastard Song of 100 Maniacs"
00:59:10.922 : :"Come and Get Him Bitch"
01:02:54.354 : :The Race Is On
01:06:19.392 : :Going On
01:10:41.487 : :"You Should Listen to Your Mother"
01:12:51.492 : :"Let's Get High"
01:14:56.909 : :"Sorry Kid I Don't Believe in Fairy Tales"
01:16:50.981 : :The Door
01:18:58.734 : :The Remains of the Day
01:21:10.866 : :"Your Wish Is My Command"
01:24:17.135 : :Sticks and Stones
01:26:37.401 : :"Die"
01:30:57.327 : :"You Were His Mother"
01:32:32.297 : :End Credits





A Nightmare on Elm Street 3: Dream Warriors (1987)


A Nightmare on Elm Street 3: Dream Warriors (1987)


A Nightmare on Elm Street 3: Dream Warriors (1987)


A Nightmare on Elm Street 3: Dream Warriors (1987)


A Nightmare on Elm Street 3: Dream Warriors (1987)