Tags
Language
Tags

A.R.C.H.I.E. 2: Mission Impawsible (2018)

Posted By: Tavaz
1080p (FullHD) / WEB-DL IMDb
A.R.C.H.I.E. 2: Mission Impawsible (2018)

A.R.C.H.I.E. 2: Mission Impawsible (2018)
WEB-DL | MKV | 1920x1070 | English | H264 @ 5239 kbps | AC-3 @ 384 kbps | 1 h 22 min | 3.24 GiB
Subtitles: English
Genre: Family

In this sequel, the super intelligent artificial robotronic dog, Archie, befriends Gregory, a young boy who is the son of a carnival owner. Gregory is concerned that someone has been stealing from the carnival and enlists his new friend to help find the culprit.

A.R.C.H.I.E.2.Mission.Impawsible.2018.1080p.WEB-DL.DD5.1.H.264-PfXCPI.mkv # Sara Canning.md5 (232 bytes)
A.R.C.H.I.E.2.Mission.Impawsible.2018.1080p.WEB-DL.DD5.1.H.264-PfXCPI.mkv (3.2 GB)



General
Unique ID : 189165239898869770498855790911146065937 (0x8E4FE66620A787148C9E2A2CFFA68011)
Complete name : ./A.R.C.H.I.E.2.Mission.Impawsible.2018.1080p.WEB-DL.DD5.1.H.264-PfXCPI.mkv
Format : Matroska
Format version : Version 4 / Version 2
File size : 3.24 GiB
Duration : 1 h 22 min
Overall bit rate : 5 625 kb/s
Encoded date : UTC 2018-12-29 07:58:24
Writing application : mkvmerge v9.4.0 ('Knurl') 64bit
Writing library : libebml v1.3.4 + libmatroska v1.4.5

Video
ID : 1
Format : AVC
Format/Info : Advanced Video Codec
Format profile : High@L4
Format settings : CABAC / 4 Ref Frames
Format settings, CABAC : Yes
Format settings, RefFrames : 4 frames
Codec ID : V_MPEG4/ISO/AVC
Duration : 1 h 22 min
Bit rate : 5 239 kb/s
Width : 1 920 pixels
Height : 1 070 pixels
Display aspect ratio : 16:9
Frame rate mode : Constant
Frame rate : 23.976 (23976/1000) FPS
Color space : YUV
Chroma subsampling : 4:2:0
Bit depth : 8 bits
Scan type : Progressive
Bits/(Pixel*Frame) : 0.106
Stream size : 3.02 GiB (93%)
Language : English
Default : Yes
Forced : No
Color range : Limited
Color primaries : BT.709
Transfer characteristics : BT.709
Matrix coefficients : BT.709

Audio
ID : 2
Format : AC-3
Format/Info : Audio Coding 3
Format settings, Endianness : Big
Codec ID : A_AC3
Duration : 1 h 22 min
Bit rate mode : Constant
Bit rate : 384 kb/s
Channel(s) : 6 channels
Channel positions : Front: L C R, Side: L R, LFE
Sampling rate : 48.0 kHz
Frame rate : 31.250 FPS (1536 SPF)
Bit depth : 16 bits
Compression mode : Lossy
Stream size : 227 MiB (7%)
Language : English
Service kind : Complete Main
Default : Yes
Forced : No

Text
ID : 3
Format : UTF-8
Codec ID : S_TEXT/UTF8
Codec ID/Info : UTF-8 Plain Text
Duration : 1 h 21 min
Bit rate : 87 b/s
Count of elements : 1512
Stream size : 52.1 KiB (0%)
Language : English
Default : Yes
Forced : No

Menu
00:00:00.000 : en:1
00:08:09.000 : en:2
00:13:10.000 : en:3
00:22:07.000 : en:4
00:29:12.000 : en:5
00:35:01.000 : en:6
00:43:25.000 : en:7
00:49:19.000 : en:8
00:56:54.000 : en:9
01:04:31.000 : en:10
01:11:44.000 : en:11
01:18:26.000 : en:12





A.R.C.H.I.E. 2: Mission Impawsible (2018)


A.R.C.H.I.E. 2: Mission Impawsible (2018)


A.R.C.H.I.E. 2: Mission Impawsible (2018)


A.R.C.H.I.E. 2: Mission Impawsible (2018)


A.R.C.H.I.E. 2: Mission Impawsible (2018)