Tags
Language
Tags
June 2024
Su Mo Tu We Th Fr Sa
26 27 28 29 30 31 1
2 3 4 5 6 7 8
9 10 11 12 13 14 15
16 17 18 19 20 21 22
23 24 25 26 27 28 29
30 1 2 3 4 5 6

A Sweet Christmas Romance (2019)

Posted By: Tavaz
A Sweet Christmas Romance (2019)

A Sweet Christmas Romance (2019)
MOV | 1280x720 | H264 @ 2499 kbps | AAC @ 127 kbps | 1 h 28 min | 1.62 GiB
Genre: Romance, TV Movie

When food stylist Holly returns home for Christmas, she learns that the elderly owner of her favorite childhood bakery is retiring and has started a contest to give the bakery away to whoever can recreate her famous 12 Days of Christmas recipes. When a local baker also enters the contest, the two adversaries end up cooking up something special together for the holidays.

896592b0d1584faeb37b9ba910aeca3f.mp4 (1.6 GB)



General
Complete name : ./896592b0d1584faeb37b9ba910aeca3f.mp4
Format : MPEG-4
Format profile : Base Media
Codec ID : isom (isom/iso2/avc1/mp41)
File size : 1.62 GiB
Duration : 1 h 28 min
Overall bit rate : 2 632 kb/s
Writing application : Lavf57.73.100

Video
ID : 1
Format : AVC
Format/Info : Advanced Video Codec
Format profile : Main@L3.1
Format settings : CABAC / 4 Ref Frames
Format settings, CABAC : Yes
Format settings, RefFrames : 4 frames
Format settings, GOP : M=1, N=48
Codec ID : avc1
Codec ID/Info : Advanced Video Coding
Duration : 1 h 28 min
Bit rate : 2 499 kb/s
Width : 1 280 pixels
Height : 720 pixels
Display aspect ratio : 16:9
Frame rate mode : Variable
Frame rate : 23.976 (24000/1001) FPS
Minimum frame rate : 23.810 FPS
Maximum frame rate : 24.390 FPS
Color space : YUV
Chroma subsampling : 4:2:0
Bit depth : 8 bits
Scan type : Progressive
Bits/(Pixel*Frame) : 0.113
Stream size : 1.54 GiB (95%)
Writing library : Zencoder Video Encoding System

Audio
ID : 2
Format : AAC
Format/Info : Advanced Audio Codec
Format profile : LC
Codec ID : mp4a-40-2
Duration : 1 h 28 min
Bit rate mode : Constant
Bit rate : 128 kb/s
Channel(s) : 2 channels
Channel positions : Front: L R
Sampling rate : 48.0 kHz
Frame rate : 46.875 FPS (1024 SPF)
Compression mode : Lossy
Stream size : 80.6 MiB (5%)
Default : Yes
Alternate group : 1

Text
ID : 1-CC1
Format : EIA-608
Muxing mode : SCTE 128 / DTVCC Transport
Muxing mode, more info : Muxed in Video #1
Duration : 1 h 28 min
Bit rate mode : Constant
Stream size : 0.00 Byte (0%)
Encoded stream size : 0.00 Byte (0%)
CaptionServiceName : CC1





A Sweet Christmas Romance (2019)


A Sweet Christmas Romance (2019)


A Sweet Christmas Romance (2019)


A Sweet Christmas Romance (2019)


A Sweet Christmas Romance (2019)