Tags
Language
Tags

A Tale of Love and Darkness / Sipour al ahava va'khoshekh (2015)

Posted By: Tavaz
A Tale of Love and Darkness / Sipour al ahava va'khoshekh (2015)

A Tale of Love and Darkness / Sipour al ahava va'khoshekh (2015)
WEB-DL | MOV | 1280x532 | Hebrew | H264 @ 1230 kbps | AAC @ 158 kbps | 1 h 38 min | 983 MiB
Subs: English hardcoded
Genre: Biography, Drama

The story of Amos Oz's youth, set against the backdrop of the end of the British Mandate for Palestine and the early years of the State of Israel. The film details the young man's relationship with his mother and his beginnings as a writer, while looking at what happens when the stories we tell become the stories we live.

על פי זיכרונותיו של עמוס עוז מילדותו בירושלים בשנים שלפני הקמת המדינה. לאריה אביו, היו תקוות זהירות לגבי העתיד, אבל פניה אמו, רצתה הרבה יותר. אחרי ששרדו את אימת המלחמה והבריחה מאירופה, הגיעו חיי היומיום שהכבידו קשות על נפשה, כדי להתעודד ולבדר את עמוס בן העשר, המציאה סיפורים על הרפתקאות מסעירות, עמוס הוקסם כשקראה לו שירה והסבירה לו פירושן של מילים ושפות, באופן שישפיע על כתיבתו לכל חייו. כשמדינת ישראל זכתה לעצמאות, והדבר לא הוביל לתחושת החיות המחודשת שפניה ציפתה לה, היא הלכה ושקעה בבדידות ועצב. בלי יכולת לעזור לה, עמוס נאלץ להיפרד ממנה מוקדם מדי. בזמן שהוא חוזה בלידתה של המדינה, עליו להתמודד עם חייו החדשים שלו עצמו.



General
Complete name : ./A.Tale.of.Love.and.Darkness.2015.HEBREW.HC.Eng.720p.WEBRip.AAC.2.0.x264-SRG.mp4
Format : MPEG-4
Format profile : Base Media / Version 2
Codec ID : mp42 (isom/iso2/avc1/mp41)
File size : 983 MiB
Duration : 1 h 38 min
Overall bit rate mode : Variable
Overall bit rate : 1 395 kb/s
Movie name : A.Tale.of.Love.and.Darkness.2015.HEBREW.1080p.WEB-DL.DD5.1.H264-FGT
Encoded date : UTC 2016-12-27 02:19:19
Tagged date : UTC 2016-12-27 02:19:19
Writing application : HandBrake 0.10.5 2016021100

Video
ID : 1
Format : AVC
Format/Info : Advanced Video Codec
Format profile : High@L4.1
Format settings : CABAC / 5 Ref Frames
Format settings, CABAC : Yes
Format settings, RefFrames : 5 frames
Codec ID : avc1
Codec ID/Info : Advanced Video Coding
Duration : 1 h 38 min
Bit rate : 1 230 kb/s
Width : 1 280 pixels
Height : 532 pixels
Display aspect ratio : 2.40:1
Original display aspect ratio : 2.40:1
Frame rate mode : Variable
Frame rate : 23.976 FPS
Minimum frame rate : 23.810 FPS
Maximum frame rate : 24.390 FPS
Color space : YUV
Chroma subsampling : 4:2:0
Bit depth : 8 bits
Scan type : Progressive
Bits/(Pixel*Frame) : 0.075
Stream size : 866 MiB (88%)
Writing library : x264 core 142 r2479 dd79a61
Encoding settings : cabac=1 / ref=5 / deblock=1:0:0 / analyse=0x3:0x113 / me=umh / subme=8 / psy=1 / psy_rd=1.00:0.00 / mixed_ref=1 / me_range=16 / chroma_me=1 / trellis=1 / 8x8dct=1 / cqm=0 / deadzone=21,11 / fast_pskip=1 / chroma_qp_offset=-2 / threads=12 / lookahead_threads=2 / sliced_threads=0 / nr=0 / decimate=1 / interlaced=0 / bluray_compat=0 / constrained_intra=0 / bframes=3 / b_pyramid=2 / b_adapt=2 / b_bias=0 / direct=3 / weightb=1 / open_gop=0 / weightp=2 / keyint=240 / keyint_min=24 / scenecut=40 / intra_refresh=0 / rc_lookahead=50 / rc=2pass / mbtree=1 / bitrate=1230 / ratetol=1.0 / qcomp=0.60 / qpmin=0 / qpmax=69 / qpstep=4 / cplxblur=20.0 / qblur=0.5 / vbv_maxrate=62500 / vbv_bufsize=78125 / nal_hrd=none / filler=0 / ip_ratio=1.40 / aq=1:1.00
Encoded date : UTC 2016-12-27 02:19:19
Tagged date : UTC 2016-12-27 02:19:19
Color range : Limited
Color primaries : BT.709
Transfer characteristics : BT.709
Matrix coefficients : BT.709
Menus : 3

Audio
ID : 2
Format : AAC
Format/Info : Advanced Audio Codec
Format profile : LC
Codec ID : mp4a-40-2
Duration : 1 h 38 min
Bit rate mode : Variable
Bit rate : 158 kb/s
Channel(s) : 2 channels
Channel positions : Front: L R
Sampling rate : 48.0 kHz
Frame rate : 46.875 FPS (1024 SPF)
Compression mode : Lossy
Stream size : 112 MiB (11%)
Title : Stereo / Stereo
Language : Hebrew
Default : Yes
Alternate group : 1
Encoded date : UTC 2016-12-27 02:19:19
Tagged date : UTC 2016-12-27 02:19:19
Menus : 3

Menu
ID : 3
Codec ID : text
Duration : 1 h 38 min
Language : English
Encoded date : UTC 2016-12-27 02:19:19
Tagged date : UTC 2016-12-27 02:19:19
Menu For : 1,2
00:00:00.000 : 1
00:05:15.398 : 2
00:10:44.853 : 3
00:15:46.821 : 4
00:19:11.318 : 5
00:26:32.342 : 6
00:30:38.463 : 7
00:35:58.950 : 8
00:39:14.813 : 9
00:45:08.166 : 10
00:49:21.336 : 11
00:55:10.560 : 12
01:00:22.372 : 13
01:04:20.944 : 14
01:10:48.039 : 15
01:14:52.075 : 16
01:18:16.404 : 17
01:22:20.398 : 18
01:27:28.957 : 19
01:32:36.306 : 20
Bit rate mode : VBR



A Tale of Love and Darkness / Sipour al ahava va'khoshekh (2015)


A Tale of Love and Darkness / Sipour al ahava va'khoshekh (2015)


A Tale of Love and Darkness / Sipour al ahava va'khoshekh (2015)


A Tale of Love and Darkness / Sipour al ahava va'khoshekh (2015)