Tags
Language
Tags

A Thousand and One Erotic Nights (1981)

Posted By: Tavaz
1080p (FullHD) / BDRip IMDb
A Thousand and One Erotic Nights (1981)

A Thousand and One Erotic Nights (1981)
BDRip | MKV | 1920x1080 | English | H264 @ 5760 kbps | AC-3 @ 96 kbps | 1 h 26 min | 3.55 GiB
Subtitles: English
Genre: Drama

Distrustful of women, a sultan executes anyone from his harem whom he sleeps with. One of these women is Scheherezade, who aims to regale the sultan with an erotic tale each night in an effort to postpone her fate.

1a4b251bc9cb1775c54000de7510107a.mkv (3.6 GB)



General
Complete name : ./1a4b251bc9cb1775c54000de7510107a.mkv
Format : Matroska
Format version : Version 4 / Version 2
File size : 3.55 GiB
Duration : 1 h 26 min
Overall bit rate : 5 852 kb/s
Encoded date : UTC 2020-10-18 21:38:26 / UTC 2020-10-17T23:51:12Z
Writing application : mkvmerge v47.0.0 ('Black Flag') 64-bit
Writing library : libebml v1.3.10 + libmatroska v1.5.2 / Lavf57.7.2

Video
ID : 1
Format : AVC
Format/Info : Advanced Video Codec
Format profile : High@L4
Format settings : CABAC / 4 Ref Frames
Format settings, CABAC : Yes
Format settings, RefFrames : 4 frames
Codec ID : V_MPEG4/ISO/AVC
Duration : 1 h 26 min
Bit rate : 5 760 kb/s
Width : 1 920 pixels
Height : 1 080 pixels
Display aspect ratio : 16:9
Frame rate mode : Constant
Frame rate : 23.976 (24000/1001) FPS
Color space : YUV
Chroma subsampling : 4:2:0
Bit depth : 8 bits
Scan type : Progressive
Bits/(Pixel*Frame) : 0.116
Stream size : 3.42 GiB (96%)
Writing library : x264 core 155 r2901 7d0ff22
Encoding settings : cabac=1 / ref=4 / deblock=1:-3:-3 / analyse=0x3:0x133 / me=umh / subme=9 / psy=1 / psy_rd=1.10:0.25 / mixed_ref=1 / me_range=32 / chroma_me=1 / trellis=2 / 8x8dct=1 / cqm=0 / deadzone=6,6 / fast_pskip=1 / chroma_qp_offset=-4 / threads=34 / lookahead_threads=3 / sliced_threads=0 / nr=0 / decimate=1 / interlaced=0 / bluray_compat=0 / constrained_intra=0 / bframes=6 / b_pyramid=2 / b_adapt=2 / b_bias=0 / direct=3 / weightb=1 / open_gop=0 / weightp=2 / keyint=240 / keyint_min=24 / scenecut=40 / intra_refresh=0 / rc_lookahead=40 / rc=2pass / mbtree=1 / bitrate=5760 / ratetol=1.0 / qcomp=0.60 / qpmin=0 / qpmax=69 / qpstep=4 / cplxblur=20.0 / qblur=0.5 / vbv_maxrate=20000 / vbv_bufsize=25000 / nal_hrd=none / filler=0 / ip_ratio=1.40 / aq=1:1.00
Language : English
Default : Yes
Forced : No
Color range : Limited
Color primaries : BT.709
Transfer characteristics : BT.709
Matrix coefficients : BT.709
Statistics Tags Issue : mkvmerge v47.0.0 ('Black Flag') 64-bit 2020-10-18 21:38:26 / mkvmerge v47.0.0 ('Black Flag') 64-bit 2020-10-18 21:38:26 / UTC 2020-10-17T23:51:12Z
FromStats_BitRate : 5754083
FromStats_Duration : 01:26:55.461000000
FromStats_FrameCount : 125046
FromStats_StreamSize : 3751274868

Audio
ID : 2
Format : AC-3
Format/Info : Audio Coding 3
Format settings, Endianness : Big
Codec ID : A_AC3
Duration : 1 h 26 min
Bit rate mode : Constant
Bit rate : 96.0 kb/s
Channel(s) : 1 channel
Channel positions : Front: C
Sampling rate : 48.0 kHz
Frame rate : 31.250 FPS (1536 SPF)
Bit depth : 16 bits
Compression mode : Lossy
Stream size : 59.7 MiB (2%)
Title : Mono
Language : English
Service kind : Complete Main
Default : Yes
Forced : No
Statistics Tags Issue : mkvmerge v47.0.0 ('Black Flag') 64-bit 2020-10-18 21:38:26 / mkvmerge v47.0.0 ('Black Flag') 64-bit 2020-10-18 21:38:26 / UTC 2020-10-17T23:51:12Z
FromStats_BitRate : 96000
FromStats_Duration : 01:26:55.392000000
FromStats_FrameCount : 162981
FromStats_StreamSize : 62584704

Text
ID : 3
Format : UTF-8
Codec ID : S_TEXT/UTF8
Codec ID/Info : UTF-8 Plain Text
Language : English
Default : Yes
Forced : No
Statistics Tags Issue : mkvmerge v47.0.0 ('Black Flag') 64-bit 2020-10-18 21:38:26 / mkvmerge v47.0.0 ('Black Flag') 64-bit 2020-10-18 21:38:26 / UTC 2020-10-17T23:51:12Z
FromStats_BitRate : 24
FromStats_Duration : 01:21:13.743000000
FromStats_FrameCount : 455
FromStats_StreamSize : 14728

Menu
00:00:00.000 : :Chapter 1
00:18:19.098 : :Chapter 2
00:35:33.173 : :Chapter 3
00:53:54.273 : :Chapter 4
01:13:30.406 : :Chapter 5





A Thousand and One Erotic Nights (1981)


A Thousand and One Erotic Nights (1981)


A Thousand and One Erotic Nights (1981)


A Thousand and One Erotic Nights (1981)


A Thousand and One Erotic Nights (1981)