Tags
Language
Tags

BBC - A Day in the Life of Andy Warhol (2015)

Posted By: notbanned
720p (HD) / WEBRip IMDb
BBC - A Day in the Life of Andy Warhol (2015)

BBC - A Day in the Life of Andy Warhol (2015)
WEBRip | 1280x720 | .MP4/AVC @ 3369 Kbps | 58 min 56 s | 1.52 GiB
Audio: English AAC 317 kbps, 2 channels | Subs: English
Genre: Documentary

Andy Warhol created some of the most instantly recognisable art of the 20th century. But perhaps his greatest work of art was himself - the cool, enigmatic pop art superstar. In this film, Stephen Smith sets out to discover the real Andy Warhol - in the hour-by-hour detail of his daily life. Taking a playful approach, mixing archive and entertaining encounters with Warhol's closest friends and confidantes, Stephen pieces together a typical day in the mid 1960s. By 1964, Warhol had established himself as a famous pop artist and his creative ambitions were exploding in new directions in a creative frenzy of art, films - and even music. From an early-hours chat with John Giorno, Warhol's lover and star of his notorious film Sleep, to recreating Warhol's intimate telephone conversations with Factory superstar Brigid Berlin, Stephen immerses himself in the round-the-clock whirl of Warhol's daily life. Visiting the church where Warhol worshipped with his mother, discussing the day-to-day running of the Factory with Warhol's assistant Gerard Malanga, talking to Bibbe Hansen and Jane Holzer, stars of his famous Screen Tests, the film offers a fresh and illuminating new portrait of Warhol. And from the obsessive desire to document his everyday life to the endless fascination with fame and his own celebrity image, a day with Andy Warhol appears surprisingly familiar to 21st century eyes. "In his lifetime", concludes Stephen, "some people thought Warhol came from another planet. But in fact he hailed from somewhere equally exotic - the future.".

General
Complete name : A.Day.in.the.Life.of.Andy.Warhol.2015.720p.mp4
Format : MPEG-4
Format profile : Base Media / Version 2
Codec ID : mp42 (mp42/isom)
File size : 1.52 GiB
Duration : 58 min 56 s
Overall bit rate mode : Variable
Overall bit rate : 3 697 kb/s

Video
ID : 1
Format : AVC
Format/Info : Advanced Video Codec
Format profile : High@L4.1
Format settings, CABAC : Yes
Format settings, ReFrames : 5 frames
Codec ID : avc1
Codec ID/Info : Advanced Video Coding
Duration : 58 min 56 s
Source duration : 58 min 56 s
Bit rate : 3 369 kb/s
Width : 1 280 pixels
Height : 720 pixels
Display aspect ratio : 16:9
Frame rate mode : Constant
Frame rate : 25.000 FPS
Color space : YUV
Chroma subsampling : 4:2:0
Bit depth : 8 bits
Scan type : Progressive
Bits/(Pixel*Frame) : 0.146
Stream size : 1.39 GiB (91%)
Source stream size : 1.39 GiB (91%)
Writing library : x264 core 157 r2935 545de2f
Encoding settings : cabac=1 / ref=5 / deblock=1:-1:-1 / analyse=0x3:0x113 / me=hex / subme=8 / psy=1 / psy_rd=1.00:0.15 / mixed_ref=1 / me_range=16 / chroma_me=1 / trellis=2 / 8x8dct=1 / cqm=0 / deadzone=21,11 / fast_pskip=1 / chroma_qp_offset=-3 / threads=12 / lookahead_threads=2 / sliced_threads=0 / nr=0 / decimate=1 / interlaced=0 / bluray_compat=0 / constrained_intra=0 / bframes=3 / b_pyramid=2 / b_adapt=1 / b_bias=0 / direct=3 / weightb=1 / open_gop=0 / weightp=2 / keyint=250 / keyint_min=25 / scenecut=40 / intra_refresh=0 / rc_lookahead=50 / rc=crf / mbtree=1 / crf=19.0 / qcomp=0.60 / qpmin=0 / qpmax=69 / qpstep=4 / vbv_maxrate=62500 / vbv_bufsize=78125 / crf_max=0.0 / nal_hrd=none / filler=0 / ip_ratio=1.40 / aq=1:1.00
Encoded date : UTC 2018-12-27 10:47:42
Tagged date : UTC 2018-12-27 10:48:12
Color range : Limited
Color primaries : BT.709
Transfer characteristics : BT.709
Matrix coefficients : BT.709

Audio
ID : 2
Format : AAC
Format/Info : Advanced Audio Codec
Format profile : LC
Codec ID : 40
Duration : 58 min 56 s
Bit rate mode : Constant
Bit rate : 317 kb/s
Channel(s) : 2 channels
Channel positions : Front: L R
Sampling rate : 48.0 kHz
Frame rate : 46.875 FPS (1024 spf)
Compression mode : Lossy
Stream size : 134 MiB (9%)
Language : English
Default : Yes
Alternate group : 1
Encoded date : UTC 2018-12-27 10:47:42
Tagged date : UTC 2018-12-27 10:48:12

Text
ID : 3
Format : Timed Text
Muxing mode : sbtl
Codec ID : tx3g
Duration : 58 min 49 s
Bit rate mode : Variable
Bit rate : 156 b/s
Stream size : 67.4 KiB (0%)
Language : English
Default : Yes
Forced : No
Alternate group : 2
Encoded date : UTC 2018-12-27 10:47:42
Tagged date : UTC 2018-12-27 10:47:42


Screenshots:

BBC - A Day in the Life of Andy Warhol (2015)

BBC - A Day in the Life of Andy Warhol (2015)

BBC - A Day in the Life of Andy Warhol (2015)

BBC - A Day in the Life of Andy Warhol (2015)