Tags
Language
Tags

Mes vies de chien / A Dog's Purpose (2017)

Posted By: EXGenerator
Mes vies de chien / A Dog's Purpose (2017)

Mes vies de chien / A Dog's Purpose (2017)
HDRip | AVI | 1h 40mn | 720x304 | XVID@838 Kbps | French (dubbed) | MP3@128 Kpbs | 2 channels | Subtitles: None | 695 MB
Genre: Adventure, Comedy, Drama

Qui a dit que les animaux n'avaient pas d'âme ? Sûrement pas le petit Ethan, 8 ans, qui en 1962 s'embarque dans une aventure hors du commun en recueillant un chiot nommé Bailey.


Video
ID : 0
Format : MPEG-4 Visual
Format profile : Advanced Simple@L5
Format settings, BVOP : 1
Format settings, QPel : No
Format settings, GMC : No warppoints
Format settings, Matrix : Default (H.263)
Muxing mode : Packed bitstream
Codec ID : XVID
Codec ID/Hint : XviD
Duration : 1 h 40 min
Bit rate : 838 kb/s
Width : 720 pixels
Height : 304 pixels
Display aspect ratio : 2.35:1
Frame rate : 23.976 (24000/1001) FPS
Color space : YUV
Chroma subsampling : 4:2:0
Bit depth : 8 bits
Scan type : Progressive
Compression mode : Lossy
Bits/(Pixel*Frame) : 0.160
Stream size : 599 MiB (86%)
Writing library : XviD 1.2.1 (UTC 2008-12-04)

Audio
ID : 1
Format : MPEG Audio
Format version : Version 1
Format profile : Layer 3
Mode : Joint stereo
Codec ID : 55
Codec ID/Hint : MP3
Duration : 1 h 40 min
Bit rate mode : Constant
Bit rate : 128 kb/s
Channel(s) : 2 channels
Sampling rate : 48.0 kHz
Compression mode : Lossy
Stream size : 91.6 MiB (13%)
Alignment : Aligned on interleaves
Interleave, duration : 167 ms (4.00 video frames)
Interleave, preload duration : 216 ms
Title : m
Writing library : LAME3.99r
Encoding settings : -m j -V 4 -q 2 -lowpass 17 -b 128



HDRiP screenshots

Mes vies de chien / A Dog's Purpose (2017)

Mes vies de chien / A Dog's Purpose (2017)

Mes vies de chien / A Dog's Purpose (2017)

Mes vies de chien / A Dog's Purpose (2017)

Mes vies de chien / A Dog's Purpose (2017)