Tags
Language
Tags
November 2022
Su Mo Tu We Th Fr Sa
30 31 1 2 3 4 5
6 7 8 9 10 11 12
13 14 15 16 17 18 19
20 21 22 23 24 25 26
27 28 29 30 1 2 3

Warboys Films - A Taste of Whale (2022)

Posted By: notbanned
SD / DVDRip
Warboys Films - A Taste of Whale (2022)

Warboys Films - A Taste of Whale (2022)
DVDRip | 852x480 | .MKV/AVC @ 2185 Kbps | 1 h 25 min | 1.39 GiB
Audio: English AC3 192 kbps, 2 channels | Subs: English
Genre: Documentary

Every year, nearly 800 pilot whales are slaughtered on the Faroe Islands despite the protests of animal rights activists. The fjord’s water, surrounded by stunning green mountains, is turning blood red. It is the "Grind"-season again – Faroe Islanders’ ritual slaughter of pilot whales. Two proud Faroese whalers are on one side, two young and passionate Sea Shepherd activists on the other. 'A Taste of Whale' invites you to see past preconceived positions and question what meat-eating is truly about.

General
Unique ID : 240494054159933475282964663583308253888 (0xB4ED78543CEEC91A37FF5C0AD6E00AC0)
Complete name : A.Taste.of.Whale.DVD.mkv
Format : Matroska
Format version : Version 4 / Version 2
File size : 1.39 GiB
Duration : 1 h 25 min
Overall bit rate : 2 330 kb/s

Video
ID : 1
Format : AVC
Format/Info : Advanced Video Codec
Format profile : Main@L3.1
Format settings, CABAC : Yes
Format settings, ReFrames : 1 frame
Codec ID : V_MPEG4/ISO/AVC
Duration : 1 h 25 min
Bit rate : 2 185 kb/s
Width : 852 pixels
Height : 480 pixels
Display aspect ratio : 16:9
Frame rate mode : Constant
Frame rate : 29.970 (30000/1001) FPS
Color space : YUV
Chroma subsampling : 4:2:0
Bit depth : 8 bits
Scan type : Progressive
Bits/(Pixel*Frame) : 0.178
Stream size : 1.27 GiB (92%)
Writing library : x264 core 129
Encoding settings : cabac=1 / ref=1 / deblock=1:0:0 / analyse=0x1:0x131 / me=dia / subme=2 / psy=1 / psy_rd=1.00:0.00 / mixed_ref=0 / me_range=16 / chroma_me=1 / trellis=0 / 8x8dct=0 / cqm=0 / deadzone=21,11 / fast_pskip=1 / chroma_qp_offset=0 / threads=8 / lookahead_threads=1 / sliced_threads=0 / nr=0 / decimate=1 / interlaced=0 / bluray_compat=0 / constrained_intra=0 / bframes=0 / weightp=2 / keyint=250 / keyint_min=25 / scenecut=40 / intra_refresh=0 / rc_lookahead=40 / rc=abr / mbtree=1 / bitrate=2185 / ratetol=1.0 / qcomp=0.60 / qpmin=10 / qpmax=51 / qpstep=4 / ip_ratio=1.41 / aq=1:1.00
Default : Yes
Forced : No

Audio
ID : 2
Format : AC-3
Format/Info : Audio Coding 3
Format settings, Endianness : Big
Codec ID : A_AC3
Duration : 1 h 25 min
Bit rate mode : Constant
Bit rate : 192 kb/s
Channel(s) : 2 channels
Channel positions : Front: L R
Sampling rate : 48.0 kHz
Frame rate : 31.250 FPS (1536 spf)
Bit depth : 16 bits
Compression mode : Lossy
Stream size : 117 MiB (8%)
Service kind : Complete Main
Default : Yes
Forced : No

Text #1
ID : 3
Format : UTF-8
Codec ID : S_TEXT/UTF8
Codec ID/Info : UTF-8 Plain Text
Duration : 1 h 11 min
Bit rate : 14 b/s
Count of elements : 192
Stream size : 7.70 KiB (0%)
Title : English
Language : English
Default : Yes
Forced : No

Text #2
ID : 4
Format : UTF-8
Codec ID : S_TEXT/UTF8
Codec ID/Info : UTF-8 Plain Text
Duration : 1 h 22 min
Bit rate : 58 b/s
Count of elements : 1010
Stream size : 35.8 KiB (0%)
Title : English CC
Language : English
Default : No
Forced : No


Screenshots:

Warboys Films - A Taste of Whale (2022)

Warboys Films - A Taste of Whale (2022)

Warboys Films - A Taste of Whale (2022)

Warboys Films - A Taste of Whale (2022)