ABC - A Machine to Die for - The Quest for Free Energy (2003)

Posted By: notbanned
ABC - A Machine to Die for - The Quest for Free Energy (2003)

ABC - A Machine to Die for - The Quest for Free Energy (2003)
DVDRip | 720x400 | .AVI/XviD @ 1723 Kbps | 54 min 59 s | 744 MiB
Audio: English MP3 160 kbps, 2 channels | Subs: None
Genre: Documentary

Machine to Die For is about the search for 'perpetual motion' and 'free energy'. Conventional science claims this is impossible, yet generations of inventors have been mesmerised by the promise of an engine that powers itself. The world's reliance on diminishing fossil fuel resources and the associated problems of pollution serve to spur them on. A Machine to Die For showcases a number of dedicated, sometimes eccentric, and always obsessive individuals who have devoted their lives to this quest. The documentary could be used as a resource when studying motion and simple machines in secondary science and physics. It could also serve as a springboard for discussions about inventors and inventions and the history of scientific endeavours. It would be suitable for teachers of middle to senior secondary students in Science (Physical Sciences), History and Materials Technology.


General
Complete name : ABC.A.Machine.to.Die.For.The.Quest.for.Free.Energy.avi
Format : AVI
Format/Info : Audio Video Interleave
File size : 744 MiB
Duration : 54 min 59 s
Overall bit rate : 1 893 kb/s

Video
ID : 0
Format : MPEG-4 Visual
Format profile : Advanced Simple@L5
Format settings, BVOP : 2
Format settings, QPel : No
Format settings, GMC : No warppoints
Format settings, Matrix : Default (H.263)
Muxing mode : Packed bitstream
Codec ID : XVID
Codec ID/Hint : XviD
Duration : 54 min 59 s
Bit rate : 1 723 kb/s
Width : 720 pixels
Height : 400 pixels
Display aspect ratio : 16:9
Frame rate : 25.000 FPS
Color space : YUV
Chroma subsampling : 4:2:0
Bit depth : 8 bits
Scan type : Progressive
Compression mode : Lossy
Bits/(Pixel*Frame) : 0.239
Stream size : 678 MiB (91%)
Writing library : XviD 1.1.2 (UTC 2006-11-01)

Audio
ID : 1
Format : MPEG Audio
Format version : Version 1
Format profile : Layer 3
Mode : Joint stereo
Mode extension : MS Stereo
Codec ID : 55
Codec ID/Hint : MP3
Duration : 54 min 58 s
Bit rate mode : Constant
Bit rate : 160 kb/s
Channel(s) : 2 channels
Sampling rate : 48.0 kHz
Compression mode : Lossy
Stream size : 62.9 MiB (8%)
Alignment : Aligned on interleaves
Interleave, duration : 40 ms (1.00 video frame)
Interleave, preload duration : 72 ms


Screenshots:

ABC - A Machine to Die for - The Quest for Free Energy (2003)

ABC - A Machine to Die for - The Quest for Free Energy (2003)

ABC - A Machine to Die for - The Quest for Free Energy (2003)

ABC - A Machine to Die for - The Quest for Free Energy (2003)