AC/DC: No Bull (1996)

Posted By: Tutorial
AC/DC: No Bull (1996)

AC/DC: No Bull (1996)
BRRip | 720 x 400 | .AVI/XviD @ 1598 Kbps | 2h 3mn | English MP3 192 Kbps, 2 channels | 1.56 GB
Genre: Documentary, Music

No Bull is a live video released by AC/DC in November 1996, filmed on Super 16mm at Madrid's Plaza de Toros de Las Ventas on 10 July 1996 during the Ballbreaker world tour. It was directed by David Mallet, produced by Rocky Oldham, mixed by Mike Fraser, and edited by David Gardener and Simon Hilton; production company was Serpent Films.
Director: David Mallet
Stars: Angus Young, Malcolm Young, Brian Johnson

More info: IMDB

also You can look my other last: Music-posts

General
Complete name : ACDC.No.Bull.1996.DC.BRRip.XviD.MP3-RARBG\ACDC.No.Bull.1996.avi
Format : AVI
Format/Info : Audio Video Interleave
Format profile : OpenDML
File size : 1.56 GiB
Duration : 2h 3mn
Overall bit rate : 1 805 Kbps
Movie name : RARBG.COM - ACDC.No.Bull.1996.DC.BRRip.XviD.MP3-RARBG
Writing application : Lavf56.40.101
Comment : RARBG.COM - ACDC.No.Bull.1996.DC.BRRip.XviD.MP3-RARBG

Video
ID : 0
Format : MPEG-4 Visual
Format profile : Simple@L5
Format settings, BVOP : No
Format settings, QPel : No
Format settings, GMC : No warppoints
Format settings, Matrix : Default (H.263)
Codec ID : XVID
Codec ID/Hint : XviD
Duration : 2h 3mn
Bit rate : 1 598 Kbps
Width : 720 pixels
Height : 400 pixels
Display aspect ratio : 16:9
Frame rate : 29.970 fps
Color space : YUV
Chroma subsampling : 4:2:0
Bit depth : 8 bits
Scan type : Progressive
Compression mode : Lossy
Bits/(Pixel*Frame) : 0.185
Stream size : 1.38 GiB (89%)
Title : RARBG.COM - ACDC.No.Bull.1996.DC.BRRip.XviD.MP3-RARBG
Writing library : Lavc56.60.100

Audio
ID : 1
Format : MPEG Audio
Format version : Version 1
Format profile : Layer 3
Mode : Joint stereo
Codec ID : 55
Codec ID/Hint : MP3
Duration : 2h 3mn
Bit rate mode : Constant
Bit rate : 192 Kbps
Channel(s) : 2 channels
Sampling rate : 48.0 KHz
Compression mode : Lossy
Stream size : 170 MiB (11%)
Alignment : Aligned on interleaves
Interleave, duration : 24 ms (0.72 video frame)
Interleave, preload duration : 24 ms
Title : RARBG.COM - ACDC.No.Bull.1996.DC.BRRip.XviD.MP3-RARBG
Writing library : LAME
Screenshots

AC/DC: No Bull (1996)

AC/DC: No Bull (1996)

AC/DC: No Bull (1996)

Welcome to my blog - daily update!

AC/DC: No Bull (1996)