Tags
Language
Tags

Arte - The Century of Le Corbusier (2015)

Posted By: Tutorial
SD / DVDRip
Arte - The Century of Le Corbusier (2015)

Arte - The Century of Le Corbusier (2015)
PDTV | 720 x 404 | .MP4/AVC @ 1281 Kbps | 52mn 51s | English AAC 144 Kbps, 2 channels | 541 MB
Genre: Documentary, Arts

Though Swiss-born, Le Corbusier is known as a French architect, writer, urbanist, and designer, having become a citizen in his 30's and doing to majority of his work as a French citizen. He is best remembered for his pioneering vision and contributions to what is referred to as Modern Architecture by critics, historians and artists alike. His fifty year career produced some of the most iconic structures built all over the world. As an architect, Le Corbusier has designed everything from villas, to the UN Headquarters in New York City. The Complexe du Capitole in Chandigarh (India), the National Museum of Western Art, Tokyo (Japan), the House of Dr Curutchet in La Plata (Argentina) and the Unite d'habitation in Marseille (France) reflect the solutions that the Modern Movement sought to apply during the 20th century to the challenges of inventing new architectural techniques to respond to the needs of society.
The controversial architect who radically transformed our cities and towns through modernism and the use of concrete and glass tells the story of his life, beliefs and achievements in his own words, through extensive archive audio recordings, film and photographs.
Some criticize his residential buildings, while others praise his purist clarity: Le Corbusier was a Master of concrete and one of the most important architects of the 20th century. Based on interviews and personal writings, this documentary gives an overview of life at the time: the century of world wars, ideologies and totalitarianism.

General
Complete name : ARTE.The.Century.of.Le.Corbusier.mp4
Format : MPEG-4
Format profile : Base Media
Codec ID : isom
File size : 541 MiB
Duration : 52mn 51s
Overall bit rate mode : Variable
Overall bit rate : 1 430 Kbps
Encoded date : UTC 2015-09-08 19:12:26
Tagged date : UTC 2015-09-08 19:12:26

Video
ID : 1
Format : AVC
Format/Info : Advanced Video Codec
Format profile : High@L3.1
Format settings, CABAC : Yes
Format settings, ReFrames : 5 frames
Codec ID : avc1
Codec ID/Info : Advanced Video Coding
Duration : 52mn 51s
Bit rate : 1 281 Kbps
Maximum bit rate : 7 013 Kbps
Width : 720 pixels
Height : 404 pixels
Display aspect ratio : 16:9
Frame rate mode : Constant
Frame rate : 25.000 fps
Color space : YUV
Chroma subsampling : 4:2:0
Bit depth : 8 bits
Scan type : Progressive
Bits/(Pixel*Frame) : 0.176
Stream size : 484 MiB (90%)
Writing library : x264 core 148 r2597 e86f3a1
Encoding settings : cabac=1 / ref=5 / deblock=1:-2:-2 / analyse=0x3:0x113 / me=umh / subme=8 / psy=1 / psy_rd=1.00:0.00 / mixed_ref=1 / me_range=16 / chroma_me=1 / trellis=1 / 8x8dct=1 / cqm=0 / deadzone=21,11 / fast_pskip=1 / chroma_qp_offset=-2 / threads=12 / lookahead_threads=2 / sliced_threads=0 / nr=0 / decimate=1 / interlaced=0 / bluray_compat=0 / constrained_intra=0 / bframes=3 / b_pyramid=2 / b_adapt=2 / b_bias=0 / direct=3 / weightb=1 / open_gop=0 / weightp=2 / keyint=250 / keyint_min=25 / scenecut=40 / intra_refresh=0 / rc_lookahead=50 / rc=crf / mbtree=1 / crf=21.0 / qcomp=0.60 / qpmin=0 / qpmax=69 / qpstep=4 / ip_ratio=1.40 / aq=1:1.00
Encoded date : UTC 2015-09-08 19:12:26
Tagged date : UTC 2015-09-08 19:12:35
Matrix coefficients : BT.709-5, BT.1361, IEC 61966-2-4 709, SMPTE RP177

Audio
ID : 2
Format : AAC
Format/Info : Advanced Audio Codec
Format profile : LC
Codec ID : 40
Duration : 52mn 51s
Bit rate mode : Variable
Bit rate : 144 Kbps
Maximum bit rate : 246 Kbps
Channel(s) : 2 channels
Channel positions : Front: L R
Sampling rate : 48.0 KHz
Compression mode : Lossy
Stream size : 54.8 MiB (10%)
Encoded date : UTC 2015-09-08 17:45:42
Tagged date : UTC 2015-09-08 19:12:35
Screenshots

Arte - The Century of Le Corbusier (2015)

Arte - The Century of Le Corbusier (2015)

Arte - The Century of Le Corbusier (2015)

Arte - The Century of Le Corbusier (2015)

Welcome to my blog - daily update!

Arte - The Century of Le Corbusier (2015)