A Beer Tale (2012)

Posted By: NaVi7
A Beer Tale (2012)

A Beer Tale (2012)
DVDRip | AVI / XVID, 1136 Kbps | 624x304 | 1h 16mn | 698 MB | English: MP3, 128 Kbps (2 ch) | Subtitles: none
DVD5 | NTSC 16:9 (720x480) VBR | 1h 16mn | 4.00 GB | English: Dolby AC3, 6 ch / Dolby AC3, 2 ch | Subtitles: English
Genre: Comedy

A coming of age romantic comedy centered around the lives of twin brothers Luke and Corey Frankenstein in the pivotal months following college graduation. Orphaned at the age of five, the brothers inherited their family brewery and were left in the care of their uncle, a well-meaning but less than ideal paternal figure. Raised on beer, with the assumption they're all grown up, Luke and Corey decide it's time to finish their family beer; a beer their parents started but were never able to finish twenty years ago. But when the idealistic Luke meets a girl whose family shows him the home life he's always wanted, he abandons Corey and their family beer in pursuit of this budding relationship. Corey, however, refuses to go down without a fight, and the ensuing mayhem that follows pits brother against brother and forces the Colorado wild boys to finally grow up and decide what kind of men they really want to be.

imdb

General
Complete name : iguana-abt.xvid.avi
Format : AVI
Format/Info : Audio Video Interleave
File size : 698 MiB
Duration : 1h 16mn
Overall bit rate mode : Variable
Overall bit rate : 1 279 Kbps
Writing application : VirtualDubMod 1.5.10.2 (build 2540/release)
Writing library : VirtualDubMod build 2540/release

Video
ID : 0
Format : MPEG-4 Visual
Format profile : Advanced Simple@L5
Format settings, BVOP : 2
Format settings, QPel : No
Format settings, GMC : No warppoints
Format settings, Matrix : Default (H.263)
Muxing mode : Packed bitstream
Codec ID : XVID
Codec ID/Hint : XviD
Duration : 1h 16mn
Bit rate : 1 136 Kbps
Width : 624 pixels
Height : 304 pixels
Display aspect ratio : 2.053
Frame rate : 23.976 fps
Color space : YUV
Chroma subsampling : 4:2:0
Bit depth : 8 bits
Scan type : Progressive
Compression mode : Lossy
Bits/(Pixel*Frame) : 0.250
Stream size : 620 MiB (89%)
Writing library : XviD 64

Audio
ID : 1
Format : MPEG Audio
Format version : Version 1
Format profile : Layer 3
Mode : Joint stereo
Mode extension : MS Stereo
Codec ID : 55
Codec ID/Hint : MP3
Duration : 1h 16mn
Bit rate mode : Variable
Bit rate : 128 Kbps
Channel(s) : 2 channels
Sampling rate : 48.0 KHz
Compression mode : Lossy
Stream size : 71.1 MiB (10%)
Alignment : Aligned on interleaves
Interleave, duration : 24 ms (0.58 video frame)
Interleave, preload duration : 123 ms
Writing library : LAME3.90.3ªªªªªªª?ÿ

Title: A_BEER_TALE
Size: 4.00 Gb ( 4,191,040.00 KBytes ) - DVD-5
Enabled regions: 1, 2, 3, 4, 5, 6, 7, 8

VTS_01 :
Play Length: 01:16:09
Video: NTSC 16:9 (720x480) VBR, Auto Letterboxed
Audio:
English (Dolby AC3, 6 ch)
English (Dolby AC3, 2 ch)
Subtitles:
English


screenshots - DVDRip:

A Beer Tale (2012)

A Beer Tale (2012)

A Beer Tale (2012)


screenshots - DVD5:

A Beer Tale (2012)

A Beer Tale (2012)

A Beer Tale (2012)


Welcome to My Blog!

Subscribe to My Newsletter!

No more mirrors!

If you want to download it, but found out that links are dead, just leave a comment or PM me!
Download Links:
Uploaded | Rapidgator - DVDRip
Uploaded | Rapidgator - DVD5
Links to RapidGator and Uploaded are inside the html file. Download the file and open it in your browser.