Tags
Language
Tags

A Christmas Carol (2019) [FX Cut] [Complete Season 1]

Posted By: Without
1080p (FullHD) / WEB-DL IMDb
A Christmas Carol (2019) [FX Cut] [Complete Season 1]

A Christmas Carol (2019)
WEB-DL | MKV | 2 h 52 min | 1.26 GB | 720x404 | AVC@912 kb/s | English AAC@128 kb/s, 2 ch
WEB-DL 720p | MKV | 2 h 52 min | 5.54 GB | 1280x720 | AVC@3952 kb/s | English AC3@640 kb/s, 6 ch
WEB-DL 1080p | MKV | 2 h 52 min | 11.8 GB | 1920x1080 | AVC@9159 kb/s | English AC3@640 kb/s, 6 ch
Subs: English
Genre: Drama | Fantasy

A television adaptation of Charles Dickens' classic Christmas tale of the miser Ebenezer Scrooge.



FX Cut: All 3 episodes in one feature-length movie.

General
A.Christmas.Carol.2019.S01E01.FX.Cut.AMZN.WEB-DL.AAC2.0.H.264-NTG.mkv
Format : Matroska
Format version : Version 4 / Version 2
File size : 1.26 GB
Duration : 2 h 52 min
Overall bit rate : 1043 kb/s
Encoded date : UTC 2019-12-20 20:04:50
Writing application : mkvmerge v21.0.0 ('Tardigrades Will Inherit The Earth') 64-bit
Writing library : libebml v1.3.5 + libmatroska v1.4.8

Video
ID : 1
Format : AVC
Format/Info : Advanced Video Codec
Format profile : Main@L3
Format settings, CABAC : Yes
Format settings, ReFrames : 4 frames
Codec ID : V_MPEG4/ISO/AVC
Duration : 2 h 52 min
Bit rate mode : Constant
Bit rate : 912 kb/s
Nominal bit rate : 2000 kb/s
Width : 720 pixels
Height : 404 pixels
Display aspect ratio : 16:9
Frame rate mode : Constant
Frame rate : 23.976 (24000/1001) FPS
Color space : YUV
Chroma subsampling : 4:2:0
Bit depth : 8 bits
Scan type : Progressive
Bits/(Pixel*Frame) : 0.131
Stream size : 1.10 GB (87%)
Default : Yes
Forced : No
Color range : Limited
Color primaries : BT.709
Transfer characteristics : BT.709
Matrix coefficients : BT.709

Audio
ID : 2
Format : AAC
Format/Info : Advanced Audio Codec
Format profile : LC
Codec ID : A_AAC
Duration : 2 h 52 min
Bit rate : 128 kb/s
Channel(s) : 2 channels
Channel positions : Front: L R
Sampling rate : 48.0 kHz
Frame rate : 46.875 FPS (1024 spf)
Compression mode : Lossy
Stream size : 158 MB (12%)
Language : English
Default : Yes
Forced : No

Text #1
ID : 3
Format : UTF-8
Codec ID : S_TEXT/UTF8
Codec ID/Info : UTF-8 Plain Text
Duration : 2 h 52 min
Bit rate : 55 b/s
Count of elements : 2572
Stream size : 69.5 KiB (0%)
Language : English
Default : No
Forced : No

Text #2
ID : 4
Format : UTF-8
Codec ID : S_TEXT/UTF8
Codec ID/Info : UTF-8 Plain Text
Duration : 2 h 52 min
Bit rate : 55 b/s
Count of elements : 2590
Stream size : 69.5 KiB (0%)
Title : SDH
Language : English
Default : No
Forced : No


General
A.Christmas.Carol.2019.S01E01.FX.Cut.720p.AMZN.WEB-DL.DDP5.1.H.264-NTG.mkv
Format : Matroska
Format version : Version 4 / Version 2
File size : 5.54 GB
Duration : 2 h 52 min
Overall bit rate : 4594 kb/s
Encoded date : UTC 2019-12-20 19:56:07
Writing application : mkvmerge v21.0.0 ('Tardigrades Will Inherit The Earth') 64-bit
Writing library : libebml v1.3.5 + libmatroska v1.4.8

Video
ID : 1
Format : AVC
Format/Info : Advanced Video Codec
Format profile : High@L3.1
Format settings, CABAC : Yes
Format settings, ReFrames : 4 frames
Codec ID : V_MPEG4/ISO/AVC
Duration : 2 h 52 min
Bit rate mode : Constant
Bit rate : 3952 kb/s
Nominal bit rate : 6000 kb/s
Width : 1280 pixels
Height : 720 pixels
Display aspect ratio : 16:9
Frame rate mode : Constant
Frame rate : 23.976 (24000/1001) FPS
Color space : YUV
Chroma subsampling : 4:2:0
Bit depth : 8 bits
Scan type : Progressive
Bits/(Pixel*Frame) : 0.179
Stream size : 4.76 GB (86%)
Default : Yes
Forced : No
Color range : Limited
Color primaries : BT.709
Transfer characteristics : BT.709
Matrix coefficients : BT.709

Audio
ID : 2
Format : E-AC-3
Format/Info : Enhanced Audio Coding 3
Format settings, Endianness : Big
Codec ID : A_EAC3
Duration : 2 h 52 min
Bit rate mode : Constant
Bit rate : 640 kb/s
Channel(s) : 6 channels
Channel positions : Front: L C R, Side: L R, LFE
Sampling rate : 48.0 kHz
Frame rate : 187.500 FPS (256 spf)
Compression mode : Lossy
Stream size : 790 MB (14%)
Language : English
Default : Yes
Forced : No

Text #1
ID : 3
Format : UTF-8
Codec ID : S_TEXT/UTF8
Codec ID/Info : UTF-8 Plain Text
Duration : 2 h 52 min
Bit rate : 55 b/s
Count of elements : 2572
Stream size : 69.5 KiB (0%)
Language : English
Default : No
Forced : No

Text #2
ID : 4
Format : UTF-8
Codec ID : S_TEXT/UTF8
Codec ID/Info : UTF-8 Plain Text
Duration : 2 h 52 min
Bit rate : 55 b/s
Count of elements : 2590
Stream size : 69.5 KiB (0%)
Title : SDH
Language : English
Default : No
Forced : No


General
A.Christmas.Carol.2019.S01E01.FX.Cut.1080p.AMZN.WEB-DL.DDP5.1.H.264-NTG.mkv
Format : Matroska
Format version : Version 4 / Version 2
File size : 11.8 GB
Duration : 2 h 52 min
Overall bit rate : 9801 kb/s
Encoded date : UTC 2019-12-20 19:29:37
Writing application : mkvmerge v21.0.0 ('Tardigrades Will Inherit The Earth') 64-bit
Writing library : libebml v1.3.5 + libmatroska v1.4.8

Video
ID : 1
Format : AVC
Format/Info : Advanced Video Codec
Format profile : High@L4
Format settings, CABAC : Yes
Format settings, ReFrames : 4 frames
Codec ID : V_MPEG4/ISO/AVC
Duration : 2 h 52 min
Bit rate mode : Constant
Bit rate : 9159 kb/s
Nominal bit rate : 10000 kb/s
Width : 1920 pixels
Height : 1080 pixels
Display aspect ratio : 16:9
Frame rate mode : Constant
Frame rate : 23.976 (24000/1001) FPS
Color space : YUV
Chroma subsampling : 4:2:0
Bit depth : 8 bits
Scan type : Progressive
Bits/(Pixel*Frame) : 0.184
Stream size : 11.0 GB (93%)
Default : Yes
Forced : No
Color range : Limited
Color primaries : BT.709
Transfer characteristics : BT.709
Matrix coefficients : BT.709

Audio
ID : 2
Format : E-AC-3
Format/Info : Enhanced Audio Coding 3
Format settings, Endianness : Big
Codec ID : A_EAC3
Duration : 2 h 52 min
Bit rate mode : Constant
Bit rate : 640 kb/s
Channel(s) : 6 channels
Channel positions : Front: L C R, Side: L R, LFE
Sampling rate : 48.0 kHz
Frame rate : 187.500 FPS (256 spf)
Compression mode : Lossy
Stream size : 790 MB (7%)
Language : English
Default : Yes
Forced : No

Text #1
ID : 3
Format : UTF-8
Codec ID : S_TEXT/UTF8
Codec ID/Info : UTF-8 Plain Text
Duration : 2 h 52 min
Bit rate : 55 b/s
Count of elements : 2572
Stream size : 69.5 KiB (0%)
Language : English
Default : No
Forced : No

Text #2
ID : 4
Format : UTF-8
Codec ID : S_TEXT/UTF8
Codec ID/Info : UTF-8 Plain Text
Duration : 2 h 52 min
Bit rate : 55 b/s
Count of elements : 2590
Stream size : 69.5 KiB (0%)
Title : SDH
Language : English
Default : No
Forced : No



WEB-DL Screenshots

A Christmas Carol (2019) [FX Cut] [Complete Season 1]

A Christmas Carol (2019) [FX Cut] [Complete Season 1]

A Christmas Carol (2019) [FX Cut] [Complete Season 1]

A Christmas Carol (2019) [FX Cut] [Complete Season 1]


WEB-DL 720p Screenshots

A Christmas Carol (2019) [FX Cut] [Complete Season 1]

A Christmas Carol (2019) [FX Cut] [Complete Season 1]

A Christmas Carol (2019) [FX Cut] [Complete Season 1]

A Christmas Carol (2019) [FX Cut] [Complete Season 1]


WEB-DL 1080p Screenshots

A Christmas Carol (2019) [FX Cut] [Complete Season 1]

A Christmas Carol (2019) [FX Cut] [Complete Season 1]

A Christmas Carol (2019) [FX Cut] [Complete Season 1]

A Christmas Carol (2019) [FX Cut] [Complete Season 1]


Come Visit My Blog (•‿•)