Tags
Language
Tags

A Dog's Purpose (2017)

Posted By: Without
A Dog's Purpose (2017)

A Dog's Purpose (2017)
TC | AVI | 720x336 | XviD@1688 kb/s | English AC3@256 kb/s
Subs: Chinese HC | 2 channels | 1 h 33 min | 1.37 GB
Genre: Adventure, Comedy, Drama

A dog looks to discover his purpose in life over the course of several lifetimes and owners.



General
Complete name : A.Dogs.Purpose.2017.HC.TCRip.XVID.AC3.HQ.Hive-CM8\A.Dogs.Purpose.2017.HC.TCRip.XVID.AC3.HQ.Hive-CM8.avi
Format : AVI
Format/Info : Audio Video Interleave
File size : 1.28 GiB
Duration : 1 h 33 min
Overall bit rate : 1 953 kb/s
Writing application : Nandub v1.0rc2
Writing library : Nandub build 1853/release

Video
ID : 0
Format : MPEG-4 Visual
Format profile : Advanced Simple@L5
Format settings, BVOP : 2
Format settings, QPel : Yes
Format settings, GMC : No warppoints
Format settings, Matrix : Default (H.263)
Muxing mode : Packed bitstream
Codec ID : XVID
Codec ID/Hint : XviD
Duration : 1 h 33 min
Bit rate : 1 688 kb/s
Width : 720 pixels
Height : 336 pixels
Display aspect ratio : 2.143
Frame rate : 25.000 FPS
Color space : YUV
Chroma subsampling : 4:2:0
Bit depth : 8 bits
Scan type : Progressive
Compression mode : Lossy
Bits/(Pixel*Frame) : 0.279
Stream size : 1.11 GiB (86%)
Writing library : XviD 1.2.1 (UTC 2008-12-04)

Audio
ID : 1
Format : AC-3
Format/Info : Audio Coding 3
Mode extension : CM (complete main)
Format settings, Endianness : Big
Codec ID : 2000
Duration : 1 h 33 min
Bit rate mode : Constant
Bit rate : 256 kb/s
Channel(s) : 2 channels
Channel positions : Front: L R
Sampling rate : 48.0 kHz
Frame rate : 31.250 FPS (1536 spf)
Bit depth : 16 bits
Compression mode : Lossy
Stream size : 172 MiB (13%)
Alignment : Split accross interleaves
Interleave, duration : 40 ms (1.00 video frame)
Interleave, preload duration : 500 ms


TC Screenshots

A Dog's Purpose (2017)

A Dog's Purpose (2017)

A Dog's Purpose (2017)

A Dog's Purpose (2017)


Come Visit My Blog (•‿•)