Tags
Language
Tags
November 2022
Su Mo Tu We Th Fr Sa
30 31 1 2 3 4 5
6 7 8 9 10 11 12
13 14 15 16 17 18 19
20 21 22 23 24 25 26
27 28 29 30 1 2 3

A Frozen Christmas 3 (2018)

Posted By: Without
1080p (FullHD) / WEB-DL IMDb
A Frozen Christmas 3 (2018)

A Frozen Christmas 3 (2018)
WEB-DL 720p | MKV | 1280x720 | AVC@2988 kb/s | English AC3@224 kb/s | 2 channels | 1 h 10 min | 1.59 GB
WEB-DL 1080p | MKV | 1920x1080 | AVC@7991 kb/s | English AC3@224 kb/s | 2 channels | 1 h 10 min | 4.06 GB
Subs: English
Genre: Animation

A Frozen Christmas 3: Party Time! will entertain kids with classic Christmas songs and delightful holiday music. Sing and dance to your favorite Christmas tunes!



General
A.Frozen.Christmas.3.2018.720p.AMZN.WEB-DL.DDP2.0.H264-CMRG.mkv
Format : Matroska
Format version : Version 4 / Version 2
File size : 1.59 GiB
Duration : 1 h 10 min
Overall bit rate : 3 214 kb/s
Encoded date : UTC 2018-11-29 14:07:19
Writing application : mkvmerge v25.0.0 ('Prog Noir') 32-bit
Writing library : libebml v1.3.6 + libmatroska v1.4.9

Video
ID : 1
Format : AVC
Format/Info : Advanced Video Codec
Format profile : High@L3.1
Format settings, CABAC : Yes
Format settings, ReFrames : 5 frames
Codec ID : V_MPEG4/ISO/AVC
Duration : 1 h 10 min
Bit rate : 2 988 kb/s
Width : 1 280 pixels
Height : 720 pixels
Display aspect ratio : 16:9
Frame rate mode : Constant
Frame rate : 23.976 (24000/1001) FPS
Color space : YUV
Chroma subsampling : 4:2:0
Bit depth : 8 bits
Scan type : Progressive
Bits/(Pixel*Frame) : 0.135
Stream size : 1.48 GiB (93%)
Default : Yes
Forced : No
Color range : Limited
Color primaries : BT.709
Transfer characteristics : BT.709
Matrix coefficients : BT.709

Audio
ID : 2
Format : E-AC-3
Format/Info : Enhanced Audio Coding 3
Format settings, Endianness : Big
Codec ID : A_EAC3
Duration : 1 h 10 min
Bit rate mode : Constant
Bit rate : 224 kb/s
Channel(s) : 2 channels
Channel positions : Front: L R
Sampling rate : 48.0 kHz
Frame rate : 187.500 FPS (256 spf)
Compression mode : Lossy
Stream size : 113 MiB (7%)
Title : English
Language : English
Default : Yes
Forced : No

Text
ID : 3
Format : UTF-8
Codec ID : S_TEXT/UTF8
Codec ID/Info : UTF-8 Plain Text
Duration : 1 h 8 min
Bit rate : 58 b/s
Count of elements : 952
Stream size : 29.4 KiB (0%)
Title : English [SDH]
Language : English
Default : No
Forced : No


General
A.Frozen.Christmas.3.2018.1080p.AMZN.WEB-DL.DDP2.0.H264-CMRG.mkv
Format : Matroska
Format version : Version 4 / Version 2
File size : 4.06 GiB
Duration : 1 h 10 min
Overall bit rate : 8 217 kb/s
Encoded date : UTC 2018-11-29 14:02:57
Writing application : mkvmerge v25.0.0 ('Prog Noir') 32-bit
Writing library : libebml v1.3.6 + libmatroska v1.4.9

Video
ID : 1
Format : AVC
Format/Info : Advanced Video Codec
Format profile : High@L4
Format settings, CABAC : Yes
Format settings, ReFrames : 4 frames
Codec ID : V_MPEG4/ISO/AVC
Duration : 1 h 10 min
Bit rate : 7 991 kb/s
Width : 1 920 pixels
Height : 1 080 pixels
Display aspect ratio : 16:9
Frame rate mode : Constant
Frame rate : 23.976 (24000/1001) FPS
Color space : YUV
Chroma subsampling : 4:2:0
Bit depth : 8 bits
Scan type : Progressive
Bits/(Pixel*Frame) : 0.161
Stream size : 3.95 GiB (97%)
Default : Yes
Forced : No
Color range : Limited
Color primaries : BT.709
Transfer characteristics : BT.709
Matrix coefficients : BT.709

Audio
ID : 2
Format : E-AC-3
Format/Info : Enhanced Audio Coding 3
Format settings, Endianness : Big
Codec ID : A_EAC3
Duration : 1 h 10 min
Bit rate mode : Constant
Bit rate : 224 kb/s
Channel(s) : 2 channels
Channel positions : Front: L R
Sampling rate : 48.0 kHz
Frame rate : 187.500 FPS (256 spf)
Compression mode : Lossy
Stream size : 113 MiB (3%)
Title : English
Language : English
Default : Yes
Forced : No

Text
ID : 3
Format : UTF-8
Codec ID : S_TEXT/UTF8
Codec ID/Info : UTF-8 Plain Text
Duration : 1 h 8 min
Bit rate : 58 b/s
Count of elements : 952
Stream size : 29.4 KiB (0%)
Title : English [SDH]
Language : English
Default : No
Forced : No



WEB-DL 720p Screenshots

A Frozen Christmas 3 (2018)

A Frozen Christmas 3 (2018)

A Frozen Christmas 3 (2018)


WEB-DL 1080p Screenshots

A Frozen Christmas 3 (2018)

A Frozen Christmas 3 (2018)

A Frozen Christmas 3 (2018)


Come Visit My Blog (•‿•)