Tags
Language
Tags

Abe & Phil's Last Poker Game (2018)

Posted By: Tavaz
1080p (FullHD) / BDRip IMDb
Abe & Phil's Last Poker Game (2018)

Abe & Phil's Last Poker Game (2018)
BluRay Remux | MKV | 1920x1080 | English / English | H264 @ 24878 kbps | DTS | 1 h 29 min | 17.7 GiB
Subtitles: English
Genre: Comedy, Drama

Dr. Abe Mandelbaum has just moved into a new manor with his ailing wife. After forming an unlikely friendship with a womanizing gambler, their relationship is tested when they each try to …

dd1cd91f073845e5af354477532a49aa.mkv (17.7 GB)



General
Complete name : ./dd1cd91f073845e5af354477532a49aa.mkv
Format : Matroska
Format version : Version 4 / Version 2
File size : 17.7 GiB
Duration : 1 h 29 min
Overall bit rate mode : Variable
Overall bit rate : 28.2 Mb/s
Encoded date : UTC 2018-03-12 13:48:36
Writing application : mkvmerge v21.0.0 ('Tardigrades Will Inherit The Earth') 64-bit
Writing library : libebml v1.3.5 + libmatroska v1.4.8

Video
ID : 1
Format : AVC
Format/Info : Advanced Video Codec
Format profile : High@L4.1
Format settings : CABAC / 4 Ref Frames
Format settings, CABAC : Yes
Format settings, RefFrames : 4 frames
Codec ID : V_MPEG4/ISO/AVC
Duration : 1 h 29 min
Bit rate mode : Variable
Bit rate : 24.9 Mb/s
Maximum bit rate : 38.0 Mb/s
Width : 1 920 pixels
Height : 1 080 pixels
Display aspect ratio : 16:9
Frame rate mode : Constant
Frame rate : 23.976 (24000/1001) FPS
Color space : YUV
Chroma subsampling : 4:2:0
Bit depth : 8 bits
Scan type : Progressive
Bits/(Pixel*Frame) : 0.500
Stream size : 15.6 GiB (88%)
Title : MPEG-4 AVC Video / 24990 kbps / 1080p / 23.976 fps / 16:9 / High Profile 4.1
Language : English
Default : Yes
Forced : No

Audio #1
ID : 2
Format : DTS
Format/Info : Digital Theater Systems
Format profile : MA / Core
Mode : 16
Format settings, Endianness : Big
Codec ID : A_DTS
Duration : 1 h 29 min
Bit rate mode : Variable / Constant
Bit rate : 3 072 kb/s / 1 509 kb/s
Channel(s) : 6 channels
Channel positions : Front: L C R, Side: L R, LFE
Sampling rate : 48.0 kHz
Frame rate : 93.750 FPS (512 SPF)
Bit depth : 24 bits
Compression mode : Lossless / Lossy
Stream size : 1.91 GiB (11%)
Title : DTS-HD Master Audio / 5.1 / 48 kHz / 3046 kbps / 24-bit
Language : English
Default : Yes
Forced : No

Audio #2
ID : 3
Format : AAC
Format/Info : Advanced Audio Codec
Format profile : LC
Codec ID : A_AAC-2
Duration : 1 h 29 min
Bit rate : 192 kb/s
Channel(s) : 2 channels
Channel positions : Front: L R
Sampling rate : 48.0 kHz
Frame rate : 46.875 FPS (1024 SPF)
Compression mode : Lossy
Delay relative to video : 9 ms
Stream size : 123 MiB (1%)
Title : Commentary by director/writer Howard Weiner
Language : English
Default : No
Forced : No

Text
ID : 4
Format : PGS
Codec ID : S_HDMV/PGS
Codec ID/Info : Picture based subtitle format used on BDs/HD-DVDs
Duration : 1 h 25 min
Bit rate : 66.2 kb/s
Count of elements : 2550
Stream size : 40.7 MiB (0%)
Title : SDH
Language : English
Default : No
Forced : No

Menu
00:00:00.000 : en:Chapter 1
00:08:46.818 : en:Chapter 2
00:18:35.614 : en:Chapter 3
00:26:59.284 : en:Chapter 4
00:34:33.738 : en:Chapter 5
00:44:19.782 : en:Chapter 6
00:52:49.291 : en:Chapter 7
01:01:14.754 : en:Chapter 8
01:10:32.353 : en:Chapter 9
01:20:01.880 : en:Chapter 10





Abe & Phil's Last Poker Game (2018)


Abe & Phil's Last Poker Game (2018)


Abe & Phil's Last Poker Game (2018)


Abe & Phil's Last Poker Game (2018)


Abe & Phil's Last Poker Game (2018)