Achilles and the Tortoise (2008)

Posted By: Tavaz
720p (HD) / BDRip IMDb
Achilles and the Tortoise (2008)

Achilles and the Tortoise (2008)
BDRip | MKV | 1280x696 | Japanese | H264 @ 5006 kbps | DTS @ 1509 kbps | 2 h 0 min | 5.46 GiB
Subtitles: English
Genre: Comedy, Drama

Machisu is a painter. He never had the success he thinks he is entitled to. Regardless of this, he always remains trying to be successful. His wife Sachiko keeps supporting him, despite all setbacks. Machisu, the only son of a rich collector, has a childs love for painting. Praise from a famous artist friend of his father inspires the young boy to dream of becoming a painter himself. s a young man, poor loner Machisu manages to attend art school with money earned from working. He is introduced to an unconventional world of bold creativity but he also gets his first bitter taste of harsh criticism from a dealer. Encouragement comes in the form of attractive clerk Sachiko who is convinced that she alone understands him. Marriage is soon followed by a daughter, as love and hope drive Machisu to commit even more deeply to his art …

dd9908e818314ca5b43df478c0f35637.mkv (5.5 GB)



General
Unique ID : 216385949602234903271828023247431115246 (0xA2CA6B0149053E1084260D3C1C21A1EE)
Complete name : ./dd9908e818314ca5b43df478c0f35637.mkv
Format : Matroska
Format version : Version 4 / Version 2
File size : 5.46 GiB
Duration : 2 h 0 min
Overall bit rate : 6 510 kb/s
Encoded date : UTC 2018-01-18 15:41:12
Writing application : mkvmerge v8.3.0 ('Over the Horizon') 64bit
Writing library : libebml v1.3.1 + libmatroska v1.4.2

Video
ID : 1
Format : AVC
Format/Info : Advanced Video Codec
Format profile : High@L4.1
Format settings : CABAC / 5 Ref Frames
Format settings, CABAC : Yes
Format settings, RefFrames : 5 frames
Codec ID : V_MPEG4/ISO/AVC
Duration : 2 h 0 min
Bit rate : 5 006 kb/s
Width : 1 280 pixels
Height : 696 pixels
Display aspect ratio : 1.85:1
Frame rate mode : Constant
Frame rate : 23.976 (24000/1001) FPS
Color space : YUV
Chroma subsampling : 4:2:0
Bit depth : 8 bits
Scan type : Progressive
Bits/(Pixel*Frame) : 0.234
Stream size : 4.19 GiB (77%)
Writing library : x264 core 152 r2851 ba24899
Encoding settings : cabac=1 / ref=5 / deblock=1:-3:-3 / analyse=0x3:0x133 / me=umh / subme=9 / psy=1 / psy_rd=1.00:0.00 / mixed_ref=1 / me_range=16 / chroma_me=1 / trellis=2 / 8x8dct=1 / cqm=0 / deadzone=21,11 / fast_pskip=0 / chroma_qp_offset=-2 / threads=12 / lookahead_threads=1 / sliced_threads=0 / nr=0 / decimate=1 / interlaced=0 / bluray_compat=0 / constrained_intra=0 / bframes=3 / b_pyramid=2 / b_adapt=1 / b_bias=0 / direct=3 / weightb=1 / open_gop=0 / weightp=2 / keyint=240 / keyint_min=24 / scenecut=40 / intra_refresh=0 / rc_lookahead=50 / rc=2pass / mbtree=1 / bitrate=5006 / ratetol=1.0 / qcomp=0.60 / qpmin=0 / qpmax=69 / qpstep=4 / cplxblur=20.0 / qblur=0.5 / ip_ratio=1.40 / aq=1:1.00
Language : English
Default : Yes
Forced : No

Audio
ID : 2
Format : DTS
Format/Info : Digital Theater Systems
Mode : 16
Format settings, Endianness : Big
Codec ID : A_DTS
Duration : 2 h 0 min
Bit rate mode : Constant
Bit rate : 1 509 kb/s
Channel(s) : 6 channels
Channel positions : Front: L C R, Side: L R, LFE
Sampling rate : 48.0 kHz
Frame rate : 93.750 FPS (512 SPF)
Bit depth : 24 bits
Compression mode : Lossy
Stream size : 1.27 GiB (23%)
Language : Japanese
Default : Yes
Forced : No

Text
ID : 3
Format : UTF-8
Codec ID : S_TEXT/UTF8
Codec ID/Info : UTF-8 Plain Text
Duration : 1 h 59 min
Bit rate : 23 b/s
Count of elements : 882
Stream size : 20.6 KiB (0%)
Title : English
Language : English
Default : Yes
Forced : Yes

Menu
00:00:00.000 : en:00:00:00.000
00:13:56.252 : en:00:13:56.252
00:21:48.057 : en:00:21:48.057
00:39:21.609 : en:00:39:21.609
00:45:44.116 : en:00:45:44.116
00:53:31.166 : en:00:53:31.166
01:00:06.019 : en:01:00:06.019
01:12:28.844 : en:01:12:28.844
01:16:35.049 : en:01:16:35.049
01:27:27.701 : en:01:27:27.701
01:39:31.340 : en:01:39:31.340
01:44:59.001 : en:01:44:59.001
01:55:50.986 : en:01:55:50.986





Achilles and the Tortoise (2008)


Achilles and the Tortoise (2008)


Achilles and the Tortoise (2008)


Achilles and the Tortoise (2008)


Achilles and the Tortoise (2008)