Addicted: Americas Opioid Crisis (2019)

Posted By: Tavaz
720p (HD) / WEBRip
Addicted: Americas Opioid Crisis (2019)

Addicted: Americas Opioid Crisis (2019)
WEBRip | MKV | 1280x720 | English | H264 @ 2809 kbps | AAC @ 128 kbps | 45 min 20 s | 953 MiB
Subtitles: English
Genre: Documentary

America’s love affair with opioids is devastating - every 25 minutes a baby is born suffering from opioid withdrawal and 130 people die every day from opioid overdoses. 8.7 million children nationwide have a parent who suffer from a substance use disorder. And 80% of heroin users started their path to addiction on prescription pain killers.

One of the companies accused of sparking the opioid epidemic was Purdue pharma – wholly owned by the philanthropic Sackler family – who have made billions off the sale of the drugs. But where were the medical regulators and government agencies that should have prevented this crisis?

This is a compelling insight into the growth of America’s devastating relationship with opioids that has destroyed millions of lives.

6c1b745f66d148378cb37fc35e615f83.mkv (953.2 MB)



General
Unique ID : 53618294188441591539503711736678217199 (0x28568201703B8F40BBCA84C479D275EF)
Complete name : ./6c1b745f66d148378cb37fc35e615f83.mkv
Format : Matroska
Format version : Version 4 / Version 2
File size : 953 MiB
Duration : 45 min 20 s
Overall bit rate : 2 940 kb/s
Encoded date : UTC 2019-10-09 12:17:09
Writing application : mkvmerge v34.0.0 ('Sight and Seen') 64-bit
Writing library : libebml v1.3.7 + libmatroska v1.5.0

Video
ID : 1
Format : AVC
Format/Info : Advanced Video Codec
Format profile : High@L4.1
Format settings : CABAC / 5 Ref Frames
Format settings, CABAC : Yes
Format settings, RefFrames : 5 frames
Codec ID : V_MPEG4/ISO/AVC
Duration : 45 min 20 s
Bit rate : 2 809 kb/s
Width : 1 280 pixels
Height : 720 pixels
Display aspect ratio : 16:9
Frame rate mode : Constant
Frame rate : 25.000 FPS
Color space : YUV
Chroma subsampling : 4:2:0
Bit depth : 8 bits
Scan type : Progressive
Bits/(Pixel*Frame) : 0.122
Stream size : 911 MiB (96%)
Writing library : x264 core 158 r2984 3759fcb
Encoding settings : cabac=1 / ref=5 / deblock=1:-3:-3 / analyse=0x3:0x113 / me=hex / subme=8 / psy=1 / psy_rd=1.00:0.15 / mixed_ref=1 / me_range=16 / chroma_me=1 / trellis=2 / 8x8dct=1 / cqm=0 / deadzone=21,11 / fast_pskip=1 / chroma_qp_offset=-3 / threads=22 / lookahead_threads=3 / sliced_threads=0 / nr=0 / decimate=1 / interlaced=0 / bluray_compat=0 / constrained_intra=0 / bframes=3 / b_pyramid=2 / b_adapt=1 / b_bias=0 / direct=3 / weightb=1 / open_gop=0 / weightp=2 / keyint=250 / keyint_min=25 / scenecut=40 / intra_refresh=0 / rc_lookahead=50 / rc=crf / mbtree=1 / crf=18.0 / qcomp=0.60 / qpmin=0 / qpmax=69 / qpstep=4 / vbv_maxrate=17500 / vbv_bufsize=17500 / crf_max=0.0 / nal_hrd=none / filler=0 / ip_ratio=1.40 / aq=1:0.60
Default : Yes
Forced : No
Color range : Limited
Matrix coefficients : BT.709

Audio
ID : 2
Format : AAC
Format/Info : Advanced Audio Codec
Format profile : LC
Codec ID : A_AAC-2
Duration : 45 min 20 s
Bit rate : 128 kb/s
Channel(s) : 2 channels
Channel positions : Front: L R
Sampling rate : 48.0 kHz
Frame rate : 46.875 FPS (1024 SPF)
Compression mode : Lossy
Stream size : 41.5 MiB (4%)
Language : English
Default : Yes
Forced : No

Text
ID : 3
Format : UTF-8
Codec ID : S_TEXT/UTF8
Codec ID/Info : UTF-8 Plain Text
Duration : 45 min 13 s
Bit rate : 96 b/s
Count of elements : 748
Stream size : 32.1 KiB (0%)
Language : English
Default : No
Forced : No





Addicted: Americas Opioid Crisis (2019)


Addicted: Americas Opioid Crisis (2019)


Addicted: Americas Opioid Crisis (2019)


Addicted: Americas Opioid Crisis (2019)


Addicted: Americas Opioid Crisis (2019)