Subcategories

Icarus Films - Afghanistan 1979: The War that Changed the World (2013)

Posted By: Tutorial
Icarus Films - Afghanistan 1979: The War that Changed the World (2013)

Icarus Films - Afghanistan 1979: The War that Changed the World (2013)
HDTV | 1920 x 1080 | .MP4/AVC @ 4200 Kbps | 57 min 49 s | 1.74 GB
Audio: English AAC 158 Kbps, 2 channels | Subs: English
Genre: Documentary, War

In 1979, when Soviet troops entered Afghanistan, they said it was only a 'limited contingent' of armed forces. Little did they know that the war would last ten years, and play a key role in the collapse of the Soviet Union (not to mention launch Osama Bin Laden and Al Qaeda).
also You can look my other last: Afghanistan-posts

General
Complete name : Afghanistan.1979.The.War.That.Changed.the.World.mp4
Format : MPEG-4
Format profile : Base Media
Codec ID : isom (isom)
File size : 1.74 GiB
Duration : 57 min 49 s
Overall bit rate mode : Variable
Overall bit rate : 4 319 kb/s
Encoded date : UTC 2017-07-09 18:43:05
Tagged date : UTC 2017-07-09 18:43:05
Writing application : My MP4Box GUI 0.6.0.6

Video
ID : 1
Format : AVC
Format/Info : Advanced Video Codec
Format profile : High@L4.1
Format settings, CABAC : Yes
Format settings, ReFrames : 4 frames
Codec ID : avc1
Codec ID/Info : Advanced Video Coding
Duration : 57 min 49 s
Bit rate : 4 200 kb/s
Maximum bit rate : 56.7 Mb/s
Width : 1 920 pixels
Height : 1 080 pixels
Display aspect ratio : 16:9
Frame rate mode : Constant
Frame rate : 29.970 (30000/1001) FPS
Color space : YUV
Chroma subsampling : 4:2:0
Bit depth : 8 bits
Scan type : Progressive
Bits/(Pixel*Frame) : 0.068
Stream size : 1.68 GiB (96%)
Title : Afghanistan.1979.The.War.That.Changed.the.World.1080p.HDTV.x264.AAC
Writing library : x264 core 130 r2273 b3065e6
Encoding settings : cabac=1 / ref=1 / deblock=1:0:0 / analyse=0x3:0x3 / me=dia / subme=1 / psy=1 / psy_rd=1.00:0.00 / mixed_ref=0 / me_range=16 / chroma_me=1 / trellis=0 / 8x8dct=1 / cqm=0 / deadzone=21,11 / fast_pskip=1 / chroma_qp_offset=0 / threads=6 / lookahead_threads=1 / sliced_threads=0 / nr=0 / decimate=1 / interlaced=0 / bluray_compat=0 / constrained_intra=0 / bframes=3 / b_pyramid=2 / b_adapt=1 / b_bias=0 / direct=1 / weightb=1 / open_gop=0 / weightp=1 / keyint=300 / keyint_min=30 / scenecut=40 / intra_refresh=0 / rc_lookahead=0 / rc=abr / mbtree=0 / bitrate=4200 / ratetol=1.0 / qcomp=0.60 / qpmin=0 / qpmax=69 / qpstep=4 / vbv_maxrate=62500 / vbv_bufsize=78125 / nal_hrd=none / ip_ratio=1.40 / pb_ratio=1.30 / aq=1:1.00
Encoded date : UTC 2017-07-09 16:53:00
Tagged date : UTC 2017-07-09 18:43:39
Color range : Limited
Color primaries : BT.709
Transfer characteristics : BT.709
Matrix coefficients : BT.709

Audio
ID : 2
Format : AAC
Format/Info : Advanced Audio Codec
Format profile : LC
Codec ID : 40
Duration : 57 min 49 s
Bit rate mode : Variable
Bit rate : 158 kb/s
Maximum bit rate : 289 kb/s
Channel(s) : 2 channels
Channel positions : Front: L R
Sampling rate : 44.1 kHz
Frame rate : 43.066 FPS (1024 spf)
Compression mode : Lossy
Stream size : 65.4 MiB (4%)
Title : Afghanistan.1979.The.War.That.Changed.the.World.1080p.HDTV.x264.AAC.
Encoded date : UTC 2017-07-09 18:43:34
Tagged date : UTC 2017-07-09 18:43:39

Text
ID : 3
Format : Timed Text
Codec ID : tx3g
Duration : 56 min 12 s
Bit rate mode : Variable
Bit rate : 67 b/s
Stream size : 27.5 KiB (0%)
Title : Afghanistan.1979.The.War.That.Changed.the.World.1080p.HDTV.x264.AAC.
Forced : No
Encoded date : UTC 2017-07-09 18:43:39
Tagged date : UTC 2017-07-09 18:43:39
Screenshots

Icarus Films - Afghanistan 1979: The War that Changed the World (2013)

Icarus Films - Afghanistan 1979: The War that Changed the World (2013)

Icarus Films - Afghanistan 1979: The War that Changed the World (2013)

Icarus Films - Afghanistan 1979: The War that Changed the World (2013)

Icarus Films - Afghanistan 1979: The War that Changed the World (2013)

Icarus Films - Afghanistan 1979: The War that Changed the World (2013)

Welcome to my blog - daily update!

Icarus Films - Afghanistan 1979: The War that Changed the World (2013)