Aladdin (1986)

Posted By: Tavaz
Aladdin (1986)

Aladdin (1986)
MKV | 672x576 | English / German | H264 @ 3006 kbps | AC-3 @ 192 kbps | 1 h 31 min | 2.22 GiB
Subtitles: German
Genre: Adventure, Fantasy

Updating of the old "Aladdin" Arabian Nights tale, as a teenager in modern-day Miami finds a magic lantern and out pops a genie, who's been asleep for 200 years and in his gratitude grants the boy several wishes.

Aladdin.1986.mkv (2.2 GB)
Aladdin.1986.srt (71.0 KB)



General
Unique ID : 38140952643983911329155130856327393963 (0x1CB1AE26DC0EA1DB1A36751C6AFCB2AB)
Complete name : ./Aladdin.1986.mkv
Format : Matroska
Format version : Version 4 / Version 2
File size : 2.22 GiB
Duration : 1 h 31 min
Overall bit rate : 3 459 kb/s
Encoded date : UTC 2017-10-28T19:05:56Z
Writing application : HandBrake 1.0.1 2016122900
Writing library : Lavf57.7.2

Video
ID : 1
Format : AVC
Format/Info : Advanced Video Codec
Format profile : Main@L4
Format settings : CABAC / 16 Ref Frames
Format settings, CABAC : Yes
Format settings, RefFrames : 16 frames
Codec ID : V_MPEG4/ISO/AVC
Duration : 1 h 31 min
Bit rate : 3 006 kb/s
Width : 672 pixels
Height : 576 pixels
Display aspect ratio : 5:3
Original display aspect ratio : 5:3
Frame rate mode : Constant
Frame rate : 25.000 FPS
Color space : YUV
Chroma subsampling : 4:2:0
Bit depth : 8 bits
Scan type : Progressive
Bits/(Pixel*Frame) : 0.311
Stream size : 1.93 GiB (87%)
Writing library : x264 core 148 r2708 86b7198
Encoding settings : cabac=1 / ref=16 / deblock=1:-1:-1 / analyse=0x1:0x131 / me=tesa / subme=11 / psy=1 / psy_rd=1.00:0.15 / mixed_ref=1 / me_range=24 / chroma_me=1 / trellis=2 / 8x8dct=0 / cqm=0 / deadzone=21,11 / fast_pskip=0 / chroma_qp_offset=-3 / threads=18 / lookahead_threads=4 / sliced_threads=0 / nr=0 / decimate=1 / interlaced=0 / bluray_compat=0 / constrained_intra=0 / bframes=16 / b_pyramid=2 / b_adapt=2 / b_bias=0 / direct=3 / weightb=1 / open_gop=0 / weightp=2 / keyint=250 / keyint_min=25 / scenecut=40 / intra_refresh=0 / rc_lookahead=60 / rc=crf / mbtree=1 / crf=20.0 / qcomp=0.60 / qpmin=0 / qpmax=69 / qpstep=4 / vbv_maxrate=20000 / vbv_bufsize=25000 / crf_max=0.0 / nal_hrd=none / filler=0 / ip_ratio=1.40 / aq=1:1.00
Default : Yes
Forced : No
Color range : Limited
Color primaries : BT.601 PAL
Transfer characteristics : BT.709
Matrix coefficients : BT.601

Audio #1
ID : 2
Format : AC-3
Format/Info : Audio Coding 3
Format settings, Endianness : Big
Codec ID : A_AC3
Duration : 1 h 31 min
Bit rate mode : Constant
Bit rate : 192 kb/s
Channel(s) : 2 channels
Channel positions : Front: L R
Sampling rate : 48.0 kHz
Frame rate : 31.250 FPS (1536 SPF)
Bit depth : 16 bits
Compression mode : Lossy
Delay relative to video : -5 ms
Stream size : 126 MiB (6%)
Title : Stereo
Language : English
Service kind : Complete Main
Default : Yes
Forced : No

Audio #2
ID : 3
Format : AC-3
Format/Info : Audio Coding 3
Format settings, Endianness : Big
Codec ID : A_AC3
Duration : 1 h 31 min
Bit rate mode : Constant
Bit rate : 192 kb/s
Channel(s) : 2 channels
Channel positions : Front: L R
Sampling rate : 48.0 kHz
Frame rate : 31.250 FPS (1536 SPF)
Bit depth : 16 bits
Compression mode : Lossy
Delay relative to video : -5 ms
Stream size : 126 MiB (6%)
Title : Stereo
Language : German
Service kind : Complete Main
Default : No
Forced : No

Text #1
ID : 4
Format : VobSub
Codec ID : S_VOBSUB
Codec ID/Info : Picture based subtitle format used on DVDs
Language : German
Default : No
Forced : No

Text #2
ID : 5
Format : VobSub
Codec ID : S_VOBSUB
Codec ID/Info : Picture based subtitle format used on DVDs
Language : German
Default : No
Forced : No

Menu
00:00:00.000 : :Chapter 1
00:08:23.520 : :Chapter 2
00:13:31.200 : :Chapter 3
00:21:04.800 : :Chapter 4
00:28:45.600 : :Chapter 5
00:37:18.720 : :Chapter 6
00:44:47.040 : :Chapter 7
00:53:58.080 : :Chapter 8
01:00:33.120 : :Chapter 9
01:08:50.880 : :Chapter 10
01:19:14.400 : :Chapter 11
01:28:25.920 : :Chapter 12





Aladdin (1986)


Aladdin (1986)


Aladdin (1986)


Aladdin (1986)


Aladdin (1986)