Tags
Language
Tags
November 2022
Su Mo Tu We Th Fr Sa
30 31 1 2 3 4 5
6 7 8 9 10 11 12
13 14 15 16 17 18 19
20 21 22 23 24 25 26
27 28 29 30 1 2 3

All the President's Men (1976)

Posted By: Tavaz
1080p (FullHD) / BDRip IMDb
All the President's Men (1976)

All the President's Men (1976)
BDRip | MKV | 1920x1080 | English | H264 @ 10000 kbps | DTS @ 768 kbps | 2 h 18 min | 10.4 GiB
Genre: Drama, History, Mystery, Thriller

In the run-up to the 1972 elections, Washington Post reporter Bob Woodward covers what seems to be a minor break-in at the Democratic Party National Headquarters. He is surprised to find top lawyers already on the defense case, and the discovery of names and addresses of Republican fund organizers on the accused further arouses his suspicions. After the editor of the Post runs with the story and assigns Woodward and Carl Bernstein to it, they find the trail leading higher and higher in the Republican Party—and eventually into the White House itself.

All.the.Presidents.Men.1976.1080p.Bluray.X264-BARC0DE.part1.rar (5.5 GB)
All.the.Presidents.Men.1976.1080p.Bluray.X264-BARC0DE.part2.rar (5.0 GB)



General
Unique ID : 230742303698408316724597213164852223053 (0xAD9759E917CA2272B7998EF0AE841C4D)
Complete name : ./1a67d0038e924cdaa3f673911f198320.mkv
Format : Matroska
Format version : Version 2
File size : 10.4 GiB
Duration : 2 h 18 min
Overall bit rate : 10.7 Mb/s
Encoded date : UTC 2013-07-02 15:52:25
Writing application : mkvmerge v5.8.0 ('No Sleep / Pillow') built on Sep 2 2012 15:37:04
Writing library : libebml v1.2.3 + libmatroska v1.3.0

Video
ID : 1
Format : AVC
Format/Info : Advanced Video Codec
Format profile : Main@L4
Format settings : 2 Ref Frames
Format settings, CABAC : No
Format settings, RefFrames : 2 frames
Muxing mode : Header stripping
Codec ID : V_MPEG4/ISO/AVC
Duration : 2 h 18 min
Bit rate : 10 000 kb/s
Width : 1 920 pixels
Height : 1 080 pixels
Display aspect ratio : 16:9
Frame rate mode : Constant
Frame rate : 23.976 FPS
Color space : YUV
Chroma subsampling : 4:2:0
Bit depth : 8 bits
Scan type : Progressive
Bits/(Pixel*Frame) : 0.201
Stream size : 9.44 GiB (91%)
Writing library : x264 core 112
Encoding settings : cabac=0 / ref=1 / deblock=1:0:0 / analyse=0x1:0x111 / me=umh / subme=5 / psy=1 / psy_rd=0.00:0.00 / mixed_ref=0 / me_range=16 / chroma_me=1 / trellis=0 / 8x8dct=0 / cqm=0 / deadzone=21,11 / fast_pskip=0 / chroma_qp_offset=0 / threads=6 / sliced_threads=0 / nr=0 / decimate=1 / interlaced=0 / constrained_intra=0 / bframes=3 / b_pyramid=0 / b_adapt=1 / b_bias=0 / direct=1 / weightb=0 / open_gop=0 / weightp=0 / keyint=240 / keyint_min=23 / scenecut=40 / intra_refresh=0 / rc_lookahead=40 / rc=abr / mbtree=1 / bitrate=10000 / ratetol=1.0 / qcomp=0.60 / qpmin=3 / qpmax=51 / qpstep=4 / ip_ratio=1.40 / aq=1:1.00
Language : English
Default : Yes
Forced : No
Color range : Limited
Color primaries : BT.709
Transfer characteristics : BT.709
Matrix coefficients : BT.709

Audio
ID : 2
Format : DTS
Format/Info : Digital Theater Systems
Mode : 16
Format settings, Endianness : Big
Muxing mode : Header stripping
Codec ID : A_DTS
Duration : 2 h 18 min
Bit rate mode : Constant
Bit rate : 768 kb/s
Channel(s) : 2 channels
Channel positions : Front: L R
Sampling rate : 48.0 kHz
Frame rate : 93.750 FPS (512 SPF)
Bit depth : 24 bits
Compression mode : Lossy
Stream size : 760 MiB (7%)
Language : English
Default : Yes
Forced : No

Menu
00:00:00.000 : en:Chapter 1
00:02:12.150 : en:Chapter 2
00:06:48.634 : en:Chapter 3
00:08:06.754 : en:Chapter 4
00:12:19.006 : en:Chapter 5
00:18:06.812 : en:Chapter 6
00:20:04.554 : en:Chapter 7
00:23:26.172 : en:Chapter 8
00:30:32.640 : en:Chapter 9
00:33:29.984 : en:Chapter 10
00:40:59.808 : en:Chapter 11
00:46:50.283 : en:Chapter 12
00:54:17.647 : en:Chapter 13
00:58:32.485 : en:Chapter 14
01:00:57.547 : en:Chapter 15
01:07:57.967 : en:Chapter 16
01:13:48.317 : en:Chapter 17
01:21:20.643 : en:Chapter 18
01:27:31.264 : en:Chapter 19
01:31:25.206 : en:Chapter 20
01:32:22.221 : en:Chapter 21
01:34:05.741 : en:Chapter 22
01:38:34.134 : en:Chapter 23
01:43:45.070 : en:Chapter 24
01:49:00.176 : en:Chapter 25
01:53:30.446 : en:Chapter 26
02:00:53.556 : en:Chapter 27
02:05:30.416 : en:Chapter 28
02:10:55.574 : en:Chapter 29
02:12:05.936 : en:Chapter 30
02:15:09.786 : en:Chapter 31
02:16:38.208 : en:Chapter 32
02:18:21.561 : en:Chapter 33





All the President's Men (1976)


All the President's Men (1976)


All the President's Men (1976)


All the President's Men (1976)


All the President's Men (1976)